новый адрес
Ссылка на приватное зеркало всего за 1$. Внимание количество ограничено!!!

iTunes

1+1

iTunes

мы

WEB-DL

1

iTunes

Чернобыль

iTunes

Ральф против интернета

Лицензия

ПШазам

Лицензия

Оно 2

Лицензия

30
pack

Вам бонус

ВАЖНО

!!Акция!!

Alien_RageХит недели

RePack

Resident Evil 21

ИГРА 18+

pack

RePack

jed

!!Акция!!

Alien_Rage

RePack

fifa19

RePack

Assassins Creed: Odyssey

RePack

NEED FOR SPEED™ PAYBACK

3 сезон

9 сезон

Бесстыжие 9 сезон

Все сериалы

все сериалы на PB.wtf

RePack

FAR CRY 5
Ребята, катастрофически не хватает 1900р. для оплаты серверов за Октябрь (всвязи с блокировками трафик упал в 3 раза), 1-2р., выручайте.
  

Человек на Луне / First Man (Дэмьен Шазелл) [2018, драма, биография, история, BDRip-AVC] Dub [Лицензия] - ExKinoRay pb.wtf

Человек на Луне через торрент pb.wtf

Раздают: 3 [ 0 KB/s ]
Размер: 4.07 GB | Добавлен: 10 мес. назад | Торрент скачан:190 раз
Скачать  

10-02-2019 14:58 Человек на Луне Скачать торрент  

Информация о фильме
Название: Человек на Луне
Оригинальное название: First Man
Год выпуска: 2018
Жанр: Драма, биография, история
Режиссер: Дэмьен Шазелл
В ролях: Клер Фой, Райан Гослинг, Пабло Шрайбер, Кристофер Эбботт, Итэн Эмбри, Киаран Хайндс, Джейсон Кларк, Кайл Чандлер, Кори Столл, Шей Уигэм

Описание:
Судьба любит смельчаков, а Нил Армстронг однозначно принадлежит к их числу. Весь мир знает его имя, но мало кому известно, какой ценой астронавту дался маленький шаг, ставший огромным скачком для всего человечества.

rating
Страна: США, Япония
Студия: Amblin Entertainment, DreamWorks SKG
Продолжительность: 02:20:59
Перевод: Дублированный | Лицензия

Формат: MKV
Качество: BDRip-AVC
Видео: MPEG-4 AVC, 1024x576, 23.976 fps, 3240 kbps
Аудио #01: 48 kHz, AC3, 5.1, 448 Kbps | Dub | RUS |
Аудио #02: 48 kHz, AC3, 5.1, 448 Kbps | Оригинал | ENG |
Субтитры: Русские (Full | Forced), английские
General
Unique ID : 229352609908173953491255038650346378648 (0xAC8BB4B778AEEF6B88442A67D9501598)
Complete name : D:\First.Man.2018.BDRip.AVC.ExKinoRay.mkv
Format : Matroska
Format version : Version 2
File size : 4.07 GiB
Duration : 2 h 20 min
Overall bit rate : 4 128 kb/s
Movie name : First Man 2018 from ExKinoRay
Encoded date : UTC 2019-02-10 14:33:53
Writing application : mkvmerge v5.6.0 ('Kenya Kane') built on May 27 2012 16:44:04
Writing library : libebml v1.2.3 + libmatroska v1.3.0

Video
ID : 1
Format : AVC
Format/Info : Advanced Video Codec
Format profile : High@L4.1
Format settings, CABAC : Yes
Format settings, ReFrames : 12 frames
Codec ID : V_MPEG4/ISO/AVC
Duration : 2 h 20 min
Bit rate : 3 240 kb/s
Width : 1 024 pixels
Height : 576 pixels
Display aspect ratio : 16:9
Frame rate mode : Constant
Frame rate : 23.976 (23976/1000) FPS
Color space : YUV
Chroma subsampling : 4:2:0
Bit depth : 8 bits
Scan type : Progressive
Bits/(Pixel*Frame) : 0.229
Stream size : 3.10 GiB (76%)
Title : Enigma
Writing library : x264 core 152 r2851 ba24899
Encoding settings : cabac=1 / ref=12 / deblock=1:-2:-2 / analyse=0x3:0x113 / me=umh / subme=10 / psy=1 / psy_rd=0.98:0.07 / mixed_ref=1 / me_range=32 / chroma_me=1 / trellis=2 / 8x8dct=1 / cqm=0 / deadzone=21,11 / fast_pskip=0 / chroma_qp_offset=-3 / threads=12 / lookahead_threads=3 / sliced_threads=0 / nr=0 / decimate=0 / interlaced=0 / bluray_compat=0 / constrained_intra=0 / bframes=14 / b_pyramid=2 / b_adapt=2 / b_bias=0 / direct=3 / weightb=1 / open_gop=0 / weightp=2 / keyint=240 / keyint_min=23 / scenecut=40 / intra_refresh=0 / rc=2pass / mbtree=0 / bitrate=3240 / ratetol=1.0 / qcomp=0.65 / qpmin=0 / qpmax=51 / qpstep=4 / cplxblur=20.0 / qblur=0.5 / ip_ratio=1.35 / pb_ratio=1.30 / aq=2:0.90
Language : English
Default : Yes
Forced : No
Color range : Limited
Color primaries : BT.709
Transfer characteristics : BT.709
Matrix coefficients : BT.709

Audio #1
ID : 2
Format : AC-3
Format/Info : Audio Coding 3
Mode extension : CM (complete main)
Format settings, Endianness : Big
Codec ID : A_AC3
Duration : 2 h 20 min
Bit rate mode : Constant
Bit rate : 448 kb/s
Channel(s) : 6 channels
Channel positions : Front: L C R, Side: L R, LFE
Sampling rate : 48.0 kHz
Frame rate : 31.250 FPS (1536 spf)
Compression mode : Lossy
Stream size : 452 MiB (11%)
Title : Dub (Bu-Ray)
Language : Russian
Default : Yes
Forced : No

Audio #2
ID : 3
Format : AC-3
Format/Info : Audio Coding 3
Mode extension : CM (complete main)
Format settings, Endianness : Big
Codec ID : A_AC3
Duration : 2 h 20 min
Bit rate mode : Constant
Bit rate : 448 kb/s
Channel(s) : 6 channels
Channel positions : Front: L C R, Side: L R, LFE
Sampling rate : 48.0 kHz
Frame rate : 31.250 FPS (1536 spf)
Compression mode : Lossy
Stream size : 452 MiB (11%)
Language : English
Default : No
Forced : No

Text #1
ID : 4
Format : UTF-8
Codec ID : S_TEXT/UTF8
Codec ID/Info : UTF-8 Plain Text
Title : Forced
Language : Russian
Default : Yes
Forced : No

Text #2
ID : 5
Format : UTF-8
Codec ID : S_TEXT/UTF8
Codec ID/Info : UTF-8 Plain Text
Title : Full
Language : Russian
Default : No
Forced : No

Text #3
ID : 6
Format : UTF-8
Codec ID : S_TEXT/UTF8
Codec ID/Info : UTF-8 Plain Text
Title : Full
Language : English
Default : No
Forced : No

Menu
00:00:00.000 : en:00:00:00.000
00:07:20.440 : en:00:07:20.440
00:13:35.982 : en:00:13:35.982
00:19:53.192 : en:00:19:53.192
00:25:59.725 : en:00:25:59.725
00:31:30.138 : en:00:31:30.138
00:40:17.248 : en:00:40:17.248
00:49:57.703 : en:00:49:57.703
01:00:03.016 : en:01:00:03.016
01:05:42.397 : en:01:05:42.397
01:11:05.720 : en:01:11:05.720
01:15:12.967 : en:01:15:12.967
01:21:32.888 : en:01:21:32.888
01:30:35.305 : en:01:30:35.305
01:39:00.726 : en:01:39:00.726
01:48:58.490 : en:01:48:58.490
01:54:44.419 : en:01:54:44.419
02:00:14.916 : en:02:00:14.916
02:09:55.705 : en:02:09:55.705
02:14:02.743 : en:02:14:02.743
Релиз от:

Автор релиза: pb.wtf



Скачать Человек на Луне через торрент https://b.radikal.ru/b23/1812/c8/880cd9ea20ff.png Скачать фильм Человек на Луне через торрент бесплантно в хорошем качестве Описание: Судьба любит смельчаков, а Нил Армстронг однозначно принадлежит к их числу. Весь мир знает его имя, но мало кому известно, какой ... 9.5 10 6
Info! Золотая раздача, скачанное не засчитывается.
Торрент: Зарегистрирован [2019-02-10 14:58] · скачан: 190 раз
Статус: √ проверено
Размер: 4.07 GB
Как cкачать? Как скачать Человек на Луне через торрент | qTorrent

% Раздел Тема Автор DL S | L
Фильмы 2018 [DVDrip, WEB-DLRip, HDrip] (DUB, MVO) [ 2.16 GB ] Человек на Луне / First Man [2018 биография история BDRip-AVC] - ExKinoRay Enigma2010 Скачать
2 | 0
Фильмы 2018 [DVDrip, WEB-DLRip, HDrip] (DUB, MVO) [ 2.17 GB ] Человек на Луне / First Man [2018 биография история WEB-DLRip] IMAX Edition - ExKinoRay Enigma2010 Скачать
2 | 0

28-11-2019 20:33  

Отключить всю рекламу на сайте

12-02-2019 06:13 Человек на Луне Скачать торрент  

А нельзя ли сменть жанр. С драмы, биографии, истории на сказку, фантастику, вранье? Один из величайших обманов человечества. Смотреть не буду.pb.wtf



    Дорогой пользователь! Огромная просьба, поблагодарите релизера, оцените раздачу и оставьте свои комментарий, если Вы скачали Человек на Луне через торрент бесплатно! Внесите свою лепту в развитие PiratBit!
    Комментировать посты могут только пользователи прошедшие не сложную регистрацию
    Показать сообщения:    

    Человек на Луне через торрент
    Скачать бесплатно Человек на Луне
    Человек на Луне скачать торрент
    Человек на Луне смотреть онлайн
    Cкачать фильм Человек на Луне бесплатно
    Человек на Луне скачать торрент в хорошем качестве
    Человек на Луне смотреть онлайн бесплатно в хорошем качестве


    Вы не можете начинать темы
    Вы не можете отвечать на сообщения
    Вы не можете редактировать свои сообщения
    Вы не можете удалять свои сообщения
    Вы не можете голосовать в опросах
    Вы не можете прикреплять файлы к сообщениям
    Вы можете скачивать файлы