Ссылка на приватное зеркало нашего сайта всего за 1$. Внимание количество ограничено!!!

2 сезон

iTunes

1 сезон

1

2 сезон

2 сезон

iTunes

1 сезон

RePack

30

Ultimate

ВАЖНО

ИГРА 18+

pack

RePack

MK11
pack

Забери бонус

RePack

jed

!!Акция!!

Alien_Rage

RePack

fifa19

RePack

Assassins Creed: Odyssey

RePack

NEED FOR SPEED™ PAYBACK

4 сезон

9 сезон

Бесстыжие 9 сезон

Все сериалы

все сериалы на PB.wtf

RePack

FAR CRY 5
  

Поцелуй меня первым / Сначала поцелуй меня / Kiss Me First / Сезон: 1 / Серии: 1-6 из 6 (Том Грин, Миша Мэнсон-Смит) [2018, Драма, триллер, драма, детектив, фантастика, WEBRip 1080p] MVO [Good People] pb.wtf

Поцелуй меня первым через торрент pb.wtf

Размер: 9.75 GB | Добавлен: 1 год 9 мес. назад | Торрент скачан:9 раз
Скачать  

11-02-2019 04:32 Поцелуй меня первым Скачать торрент  

Cначала поцелуй меня / Kiss Me First Оригинальное название: Kiss Me First
Русское название: Поцелуй меня первым
Год выпуска: 2018
Страна: Великобритания, США
Жанр: Драма, триллер, драма, детектив, фантастика
Продолжительность: ~00:43:00 мин.
Перевод: Профессиональный (многоголосый закадровый) Good People
Субтитры: Да (английские)

Режиссёр: Том Грин, Миша Мэнсон-Смит

В ролях:

Таллула Роуз Хэддон, Симона Браун, Мэттью Бирд, Фредди Стюарт, Мэттью Обри, Харука Абэ, Сэмюэл Боттомли, Филип Ардитти, Джеральдин Сомервилль и другие

Описание:

Лейла с головой ушла в виртуальную реальность игры под названием «Агора», где можно стать кем угодно. Там она знакомится с молодой харизматичной женщиной по имени Тесс, а вскоре встречает ее и в реальной жизни. Однажды Тесс исчезает. Тогда Лейла решается на неожиданный ход — она присваивает персонажа Тесс в «Агоре» и начинает жить ее виртуальной жизнью.

Сэмпл
rating

Качество: WEBRip 1080p
Формат: MKV
Видео кодек: AVC
Аудио кодек: AC3

Видео: AVC, 1920x1080 (16:9), 25 fps, ~5704kbps, 0.099 bit/pixel
Аудио 1: Dolby AC3 48000Hz 6ch 384 Kbps Русский
Аудио 2: Dolby AC3 48000Hz 6ch 384 Kbps Оригинал


Реклама: Присутствует звуковая (два раза в начале и конце по 12 сек.)
General
Unique ID                   : 192366905025479688475015199304777311875 (0x90B884AD53D262F2A1FE7EC8F5A1A683)
Complete name               : Kiss.Me.First.S01E01.She.Did.Something.1080p.NF.WEB-DL.DD5.1.x264-GoodPeople.mkv
Format                      : Matroska
Format version              : Version 4 / Version 2
File size                   : 1.88 GiB
Duration                    : 46mn 22s
Overall bit rate mode       : Variable
Overall bit rate            : 5 793 Kbps
Encoded date                : UTC 2019-01-11 17:18:45
Writing application         : mkvmerge v17.0.0 ('Be Ur Friend') 64-bit
Writing library             : libebml v1.3.5 + libmatroska v1.4.8
DURATION                    : 00:46:22.496000000
NUMBER_OF_FRAMES            : 86953
NUMBER_OF_BYTES             : 133559808
_STATISTICS_WRITING_APP     : mkvmerge v17.0.0 ('Be Ur Friend') 64-bit
_STATISTICS_WRITING_DATE_UT : 2019-01-11 17:18:45
_STATISTICS_TAGS            : BPS DURATION NUMBER_OF_FRAMES NUMBER_OF_BYTES

Video
ID                          : 1
Format                      : AVC
Format/Info                 : Advanced Video Codec
Format profile              : Main@L4
Format settings, CABAC      : Yes
Format settings, ReFrames   : 3 frames
Codec ID                    : V_MPEG4/ISO/AVC
Duration                    : 46mn 22s
Bit rate mode               : Variable
Bit rate                    : 5 110 Kbps
Maximum bit rate            : 7 665 Kbps
Width                       : 1 920 pixels
Height                      : 1 080 pixels
Display aspect ratio        : 16:9
Frame rate mode             : Constant
Frame rate                  : 25.000 fps
Color space                 : YUV
Chroma subsampling          : 4:2:0
Bit depth                   : 8 bits
Scan type                   : Progressive
Bits/(Pixel*Frame)          : 0.099
Stream size                 : 1.59 GiB (85%)
Writing library             : x264 core 148
Encoding settings           : cabac=1 / ref=3 / deblock=1:0:0 / analyse=0x1:0x111 / me=umh / subme=10 / psy=1 / psy_rd=1.00:0.00 / mixed_ref=1 / me_range=24 / chroma_me=1 / trellis=2 / 8x8dct=0 / cqm=0 / deadzone=21,11 / fast_pskip=1 / chroma_qp_offset=-2 / threads=8 / lookahead_threads=1 / sliced_threads=0 / nr=0 / decimate=1 / interlaced=0 / bluray_compat=0 / stitchable=1 / constrained_intra=0 / bframes=2 / b_pyramid=0 / b_adapt=2 / b_bias=0 / direct=3 / weightb=1 / open_gop=0 / weightp=2 / keyint=50 / keyint_min=26 / scenecut=0 / intra_refresh=0 / rc_lookahead=50 / rc=2pass / mbtree=1 / bitrate=5110 / ratetol=1.0 / qcomp=0.50 / qpmin=6 / qpmax=51 / qpstep=4 / cplxblur=20.0 / qblur=0.5 / vbv_maxrate=7665 / vbv_bufsize=10220 / nal_hrd=vbr / filler=0 / ip_ratio=1.40 / aq=1:1.00
Default                     : Yes
Forced                      : No
DURATION                    : 00:46:22.496000000
NUMBER_OF_FRAMES            : 86953
NUMBER_OF_BYTES             : 133559808
_STATISTICS_WRITING_APP     : mkvmerge v17.0.0 ('Be Ur Friend') 64-bit
_STATISTICS_WRITING_DATE_UT : 2019-01-11 17:18:45
_STATISTICS_TAGS            : BPS DURATION NUMBER_OF_FRAMES NUMBER_OF_BYTES

Audio #1
ID                          : 2
Format                      : AC-3
Format/Info                 : Audio Coding 3
Mode extension              : CM (complete main)
Format settings, Endianness : Big
Codec ID                    : A_AC3
Duration                    : 46mn 22s
Bit rate mode               : Constant
Bit rate                    : 384 Kbps
Channel(s)                  : 6 channels
Channel positions           : Front: L C R, Side: L R, LFE
Sampling rate               : 48.0 KHz
Compression mode            : Lossy
Stream size                 : 127 MiB (7%)
Language                    : Russian
Default                     : Yes
Forced                      : No

Audio #2
ID                          : 3
Format                      : AC-3
Format/Info                 : Audio Coding 3
Mode extension              : CM (complete main)
Format settings, Endianness : Big
Codec ID                    : A_AC3
Duration                    : 46mn 22s
Bit rate mode               : Constant
Bit rate                    : 384 Kbps
Channel(s)                  : 6 channels
Channel positions           : Front: L C R, Side: L R, LFE
Sampling rate               : 48.0 KHz
Compression mode            : Lossy
Stream size                 : 127 MiB (7%)
Language                    : English
Default                     : No
Forced                      : No

Text
ID                          : 4
Format                      : UTF-8
Codec ID                    : S_TEXT/UTF8
Codec ID/Info               : UTF-8 Plain Text
Title                       : English
Language                    : English
Default                     : No
Forced                      : No
pb.wtf



Скачать Поцелуй меня первым через торрент https://i106.fastpic.ru/big/2019/0111/9b/648fbbef76f6a84683afd0889c29509b.jpg Скачать фильм Поцелуй меня первым через торрент бесплантно в хорошем качестве Описание: Лейла с головой ушла в виртуальную реальность игры под названием «Агора», где можно стать кем угодно. Там она знакомится с ... 10 10 2
Торрент: Зарегистрирован [2019-02-11 04:32] · скачан: 9 раз
Статус: √ проверено
Размер: 9.75 GB
Как cкачать? Как скачать Поцелуй меня первым через торрент | qTorrent

% Раздел Тема Автор DL S | L
Зарубежные сериалы [ 3.22 GB ] Сначала поцелуй меня / Поцелуй меня первым / Kiss Me First / Сезон: 1 / Серии: 1-6 из 6 [2018 HDTVRip] MVO [NewStudio] bober100 Скачать
1 | 0

28-11-2019 20:33  

Отключить всю рекламу на сайте

    Дорогой пользователь! Огромная просьба, поблагодарите релизера, оцените раздачу и оставьте свои комментарий, если Вы скачали Поцелуй меня первым через торрент бесплатно! Внесите свою лепту в развитие PiratBit!
    Комментировать посты могут только пользователи прошедшие не сложную регистрацию
    Показать сообщения:    

    Поцелуй меня первым через торрент
    Скачать бесплатно Поцелуй меня первым
    Поцелуй меня первым скачать торрент
    Поцелуй меня первым смотреть онлайн
    Cкачать фильм Поцелуй меня первым бесплатно
    Поцелуй меня первым скачать торрент в хорошем качестве
    Поцелуй меня первым смотреть онлайн бесплатно в хорошем качестве


    Вы не можете начинать темы
    Вы не можете отвечать на сообщения
    Вы не можете редактировать свои сообщения
    Вы не можете удалять свои сообщения
    Вы не можете голосовать в опросах
    Вы не можете прикреплять файлы к сообщениям
    Вы можете скачивать файлы