Ссылка на приватное зеркало нашего сайта всего за 1$. Внимание количество ограничено!!!

2 сезон

iTunes

1 сезон

1

2 сезон

2 сезон

iTunes

1 сезон

RePack

30

Ultimate

ВАЖНО

ИГРА 18+

pack

RePack

MK11
pack

Забери бонус

RePack

jed

!!Акция!!

Alien_Rage

RePack

fifa19

RePack

Assassins Creed: Odyssey

RePack

NEED FOR SPEED™ PAYBACK

4 сезон

9 сезон

Бесстыжие 9 сезон

Все сериалы

все сериалы на PB.wtf

RePack

FAR CRY 5
  

Поцелуй меня первым / Kiss Me First / Сезон: 1 / Серии: 1-6 из 6 (Том Грин, Миша Мэнсон-Смит) [2018, Драма, триллер, драма, детектив, фантастика, HDTV 1080p] MVO [TVShows] pb.wtf

Поцелуй меня первым через торрент pb.wtf

Размер: 10.63 GB | Добавлен: 1 год 9 мес. назад | Торрент скачан:7 раз
Скачать  

11-02-2019 04:39 Поцелуй меня первым Скачать торрент  

Поцелуй меня первым | Kiss Me First Год выпуска: 2018
Страна: Великобритания, США
Жанр: триллер, драма, детектив, фантастика
Продолжительность: ~ 00:47:00
Перевод: Профессиональный (многоголосый закадровый) | TVShows
Субтитры: нет

Режиссёр
: Том Грин, Миша Мэнсон-Смит

В ролях:

Таллула Роуз Хэддон, Симона Браун, Мэттью Бирд, Фред Стюарт, Мэттью Обри, Харука Абэ, Сэмюэл Боттомли, Филип Ардитти, Джеральдин Сомервилль и др.

Описание:

Главная героиня - замкнутая девочка-подросток Лейла, с головой ушедшая в виртуальную реальность игры под названием "Агора", где можно стать чуть ли ни кем угодно. Там она знакомится с молодой харизматичной женщиной по имени Тесс, а вскоре встречает ее и в реальной жизни. Однажды Тесс исчезает. Возможно, даже кончает с собой. После этого Лейла решается на неожиданный ход - она присваивает виртуального персонажа Тесс в "Агоре" и начинает жить там ее жизнью.

rating

Качество: HDTV 1080p
Формат: MKV

Видео: AVC, 1920x940, 25.000 fps, ~ 5 000 kb/s
Аудио Rus: AC3, 48.0 KHz, 2 channels, 192 kbps
Аудио Eng: AC3, 48.0 KHz, 2 channels, 384 kbps ( 6 эпизод: AAC, 48.0 KHz, 2 channels, 124 kbps )


Реклама отсутствует
General
Unique ID : 339746168069588926490804826328211998435 (0xFF98BB5B051A75CE2A4FE828071D46E3)
Complete name : G:80р. TVShows\Kiss.Me.First.S01.1080p.TVShows\Kiss.Me.First.S01E01.1080p.TVShows.mkv
Format : Matroska
Format version : Version 4 / Version 2
File size : 1.99 GiB
Duration : 46 min 33 s
Overall bit rate : 6 128 kb/s
Encoded date : UTC 2018-10-01 11:22:57
Writing application : mkvmerge v24.0.0 ('Beyond The Pale') 64-bit
Writing library : libebml v1.3.6 + libmatroska v1.4.9

Video
ID : 1
Format : AVC
Format/Info : Advanced Video Codec
Format profile : High@L4.2
Format settings, CABAC : Yes
Format settings, ReFrames : 4 frames
Codec ID : V_MPEG4/ISO/AVC
Duration : 46 min 33 s
Bit rate : 5 550 kb/s
Width : 1 920 pixels
Height : 940 pixels
Display aspect ratio : 2.043
Frame rate mode : Constant
Frame rate : 25.000 FPS
Color space : YUV
Chroma subsampling : 4:2:0
Bit depth : 8 bits
Scan type : Progressive
Bits/(Pixel*Frame) : 0.123
Stream size : 1.80 GiB (91%)
Writing library : x264 core 155 r2901 7d0ff22
Encoding settings : cabac=1 / ref=4 / deblock=1:0:0 / analyse=0x3:0x113 / me=hex / subme=8 / psy=1 / psy_rd=1.00:0.00 / mixed_ref=1 / me_range=16 / chroma_me=1 / trellis=2 / 8x8dct=1 / cqm=0 / deadzone=21,11 / fast_pskip=1 / chroma_qp_offset=-2 / threads=12 / lookahead_threads=2 / sliced_threads=0 / nr=0 / decimate=1 / interlaced=0 / bluray_compat=0 / constrained_intra=0 / bframes=3 / b_pyramid=2 / b_adapt=1 / b_bias=0 / direct=3 / weightb=1 / open_gop=0 / weightp=2 / keyint=250 / keyint_min=25 / scenecut=40 / intra_refresh=0 / rc_lookahead=50 / rc=crf / mbtree=1 / crf=17.0 / qcomp=0.60 / qpmin=0 / qpmax=69 / qpstep=4 / ip_ratio=1.40 / aq=1:1.00
Language : English
Default : Yes
Forced : No
Color range : Limited
Matrix coefficients : BT.709

Audio #1
ID : 2
Format : AC-3
Format/Info : Audio Coding 3
Mode extension : CM (complete main)
Format settings, Endianness : Big
Codec ID : A_AC3
Duration : 46 min 33 s
Bit rate mode : Constant
Bit rate : 192 kb/s
Channel(s) : 2 channels
Channel positions : Front: L R
Sampling rate : 48.0 kHz
Frame rate : 31.250 FPS (1536 spf)
Bit depth : 16 bits
Compression mode : Lossy
Stream size : 63.9 MiB (3%)
Title : TVShows
Language : Russian
Default : Yes
Forced : Yes

Audio #2
ID : 3
Format : AC-3
Format/Info : Audio Coding 3
Mode extension : CM (complete main)
Format settings, Endianness : Big
Codec ID : A_AC3
Duration : 46 min 33 s
Bit rate mode : Constant
Bit rate : 384 kb/s
Channel(s) : 2 channels
Channel positions : Front: L R
Sampling rate : 48.0 kHz
Frame rate : 31.250 FPS (1536 spf)
Bit depth : 16 bits
Compression mode : Lossy
Stream size : 128 MiB (6%)
Title : Original
Language : English
Default : No
Forced : No
скриншот  скриншот  скриншот  скриншот  скриншот  
pb.wtf



Скачать Поцелуй меня первым через торрент http://i106.fastpic.ru/big/2018/1113/18/cb6ffe07ac7baa9fd657b53b6a55bf18.jpg Скачать фильм Поцелуй меня первым через торрент бесплантно в хорошем качестве Описание: Главная героиня - замкнутая девочка-подросток Лейла, с головой ушедшая в виртуальную реальность игры под названием "Агора", где ... 10 10 2
Торрент: Зарегистрирован [2019-02-11 04:39] · скачан: 7 раз
Статус: √ проверено
Размер: 10.63 GB
Как cкачать? Как скачать Поцелуй меня первым через торрент | qTorrent

% Раздел Тема Автор DL S | L
Зарубежные сериалы [ 3.23 GB ] Поцелуй меня первым / Kiss Me First / Сезон: 1 / Серии: 1-6 из 6 [2018 WEBRip] MVO [Good People] bober100 Скачать
1 | 0
Зарубежные сериалы [ 9.75 GB ] Поцелуй меня первым / Сначала поцелуй меня / Kiss Me First / Сезон: 1 / Серии: 1-6 из 6 [2018 WEBRip 1080p] MVO [Good People] bober100 Скачать
1 | 0
Зарубежные сериалы [ 3.22 GB ] Сначала поцелуй меня / Поцелуй меня первым / Kiss Me First / Сезон: 1 / Серии: 1-6 из 6 [2018 HDTVRip] MVO [NewStudio] bober100 Скачать
1 | 0

28-11-2019 20:33  

Отключить всю рекламу на сайте

    Дорогой пользователь! Огромная просьба, поблагодарите релизера, оцените раздачу и оставьте свои комментарий, если Вы скачали Поцелуй меня первым через торрент бесплатно! Внесите свою лепту в развитие PiratBit!
    Комментировать посты могут только пользователи прошедшие не сложную регистрацию
    Показать сообщения:    

    Поцелуй меня первым через торрент
    Скачать бесплатно Поцелуй меня первым
    Поцелуй меня первым скачать торрент
    Поцелуй меня первым смотреть онлайн
    Cкачать фильм Поцелуй меня первым бесплатно
    Поцелуй меня первым скачать торрент в хорошем качестве
    Поцелуй меня первым смотреть онлайн бесплатно в хорошем качестве


    Вы не можете начинать темы
    Вы не можете отвечать на сообщения
    Вы не можете редактировать свои сообщения
    Вы не можете удалять свои сообщения
    Вы не можете голосовать в опросах
    Вы не можете прикреплять файлы к сообщениям
    Вы можете скачивать файлы