Ссылка на приватное зеркало нашего сайта всего за 1$. Внимание количество ограничено!!!

2 сезон

iTunes

1 сезон

1

iTunes

iTunes

iTunes

1 сезон

RePack

30

ИГРА 18+

pack

ВАЖНО

!!Акция!!

Alien_RageХит недели

RePack

MK11
pack

Забери бонус

RePack

jed

!!Акция!!

Alien_Rage

RePack

fifa19

RePack

Assassins Creed: Odyssey

RePack

NEED FOR SPEED™ PAYBACK

4 сезон

9 сезон

Бесстыжие 9 сезон

Все сериалы

все сериалы на PB.wtf

RePack

FAR CRY 5
  

Цветочное танго / Серии 1-2 из 2 (Александр Грабарь) [2019 г., Мелодрама, WEBRip] pb.wtf

Цветочное танго через торрент pb.wtf

Размер: 2.36 GB | Добавлен: 1 год 8 мес. назад | Торрент скачан:80 раз
Скачать  

11-02-2019 06:47 Цветочное танго Скачать торрент  

Цветочное танго / Серии 1-2 из 2
Год выпуска: 2019
Страна: Россия
Жанр: Мелодрама
Продолжительность: 2 х ~ 01:33:00
Субтитры: Отсутствуют

Режиссер: Александр Грабарь



В ролях: Алена Константинова, Денис Васильев, Антон Соколов, Пётр Баранчеев, Анна Полупанова, Ольга Дятловская, Валентина Гарцуева

Описание: Варя понимает, что ее безмятежная жизнь закончилась, когда разводятся ее родители. В этот трудный момент своей жизни Варя, наконец, соглашается встречаться с Владимиром — сыном депутата, который давно за ней ухаживает. Но вскоре оказывается, что Владимир не только изменял ей с самого начала, но и бросил, как только узнал, что она беременна. Потрясенная происходящим Варя попадает под машину, в которой едут братья Илья и Алексей. Они приводят ее в чувства и помогают добраться до больницы. Вскоре оба начинают наведываться в цветочный магазин, в котором работает Варя…Но девушка уверена, что ни циничному одиночке Алексею, ни страдающему от расставания с любимой девушкой Илье не нужны ее проблемы и чужой ребенок…

Качество: WEBRip
Формат: AVI
Видео кодек: XviD
Аудио кодек: AC3
Видео: XviD, 1600 Кбит/с, 720x400, 25 кадр/с
Аудио#1: AC3, 2 ch, 192 Кбит/с
скриншот   скриншот   скриншот   скриншот  

General
Complete name : C:\00\ Цветочное танго (2019). WEBDLRip.Files-x\02. Цветочное танго (2019). WEBDLRip.Files-x.avi
Format : AVI
Format/Info : Audio Video Interleave
File size : 1.19 GiB
Duration : 1h 34mn
Overall bit rate : 1 802 Kbps
Writing application : VirtualDubMod 1.5.10.3 | www.virtualdub-fr.org || (build 2550/release)
Writing library : VirtualDubMod build 2550/release

Video
ID : 0
Format : MPEG-4 Visual
Format profile : Advanced Simple@L5
Format settings, BVOP : 1
Format settings, QPel : No
Format settings, GMC : No warppoints
Format settings, Matrix : Custom
Codec ID : XVID
Codec ID/Hint : XviD
Duration : 1h 34mn
Bit rate : 1 600 Kbps
Width : 720 pixels
Height : 400 pixels
Display aspect ratio : 16:9
Frame rate : 25.000 fps
Color space : YUV
Chroma subsampling : 4:2:0
Bit depth : 8 bits
Scan type : Progressive
Compression mode : Lossy
Bits/(Pixel*Frame) : 0.222
Stream size : 1.05 GiB (89%)
Writing library : XviD 73

Audio
ID : 1
Format : AC-3
Format/Info : Audio Coding 3
Mode extension : CM (complete main)
Codec ID : 2000
Duration : 1h 34mn
Bit rate mode : Constant
Bit rate : 192 Kbps
Channel(s) : 2 channels
Channel positions : Front: L R
Sampling rate : 48.0 KHz
Bit depth : 16 bits
Compression mode : Lossy
Stream size : 129 MiB (11%)
Alignment : Split accross interleaves
Interleave, duration : 40 ms (1.00 video frame)
Interleave, preload duration : 500 ms

pb.wtf



Скачать Цветочное танго через торрент http://pic1.kartinco.top/images/12/i6j9j.jpg Скачать фильм Цветочное танго через торрент бесплантно в хорошем качестве Описание: Варя понимает, что ее безмятежная жизнь закончилась, когда разводятся ее родители. В этот трудный момент своей жизни Варя, ... 10 10 1
Торрент: Зарегистрирован [2019-02-11 06:47] · скачан: 80 раз
Статус: √ проверено
Размер: 2.36 GB
Как cкачать? Как скачать Цветочное танго через торрент | qTorrent

28-11-2019 20:33  

Отключить всю рекламу на сайте

    Дорогой пользователь! Огромная просьба, поблагодарите релизера, оцените раздачу и оставьте свои комментарий, если Вы скачали Цветочное танго через торрент бесплатно! Внесите свою лепту в развитие PiratBit!
    Комментировать посты могут только пользователи прошедшие не сложную регистрацию
    Показать сообщения:    

    Цветочное танго через торрент
    Скачать бесплатно Цветочное танго
    Цветочное танго скачать торрент
    Цветочное танго смотреть онлайн
    Cкачать фильм Цветочное танго бесплатно
    Цветочное танго скачать торрент в хорошем качестве
    Цветочное танго смотреть онлайн бесплатно в хорошем качестве


    Вы не можете начинать темы
    Вы не можете отвечать на сообщения
    Вы не можете редактировать свои сообщения
    Вы не можете удалять свои сообщения
    Вы не можете голосовать в опросах
    Вы не можете прикреплять файлы к сообщениям
    Вы можете скачивать файлы