Ссылка на приватное зеркало нашего сайта всего за 1$. Внимание количество ограничено!!!

2 сезон

iTunes

1 сезон

1

iTunes

iTunes

iTunes

1 сезон

RePack

30

ИГРА 18+

pack

ВАЖНО

!!Акция!!

Alien_RageХит недели

RePack

MK11
pack

Забери бонус

RePack

jed

!!Акция!!

Alien_Rage

RePack

fifa19

RePack

Assassins Creed: Odyssey

RePack

NEED FOR SPEED™ PAYBACK

4 сезон

9 сезон

Бесстыжие 9 сезон

Все сериалы

все сериалы на PB.wtf

RePack

FAR CRY 5
  

Пекарь и Красавица / Сезон: 1 / Серии: 1-17 из 17 (Фёдор Стуков) [2019, Комедия, мелодрама, WEB-DL 720p] pb.wtf

Пекарь и Красавица через торрент pb.wtf

Размер: 10.22 GB | Добавлен: 1 год 7 мес. назад | Торрент скачан:150 раз
Скачать  

11-02-2019 10:08 Пекарь и Красавица Скачать торрент  

Пекарь и КрасавицаГод выпуска: 2019
Страна: Россия
Жанр: Комедия, мелодрама
Продолжительность: ~ 00:23:00
Субтитры: отсутствуют

Режиссер: Фёдор Стуков



В ролях:

Анна Чиповская, Никита Волков, Даниил Вахрушев, Джеймс Тратас, Алина Алексеева (II), Ленни Хейден, Евгения Дмитриева, Алексей Макаров, Артур Ваха, Арарат Кещян, Алексей Розин, Вячеслав Манучаров, Екатерина Воронина (II), Надежда Игошина, Юлия Сулес, Евгения Ахременко, Ольга Веникова

Описание:

Встретив суперзвезду в туалете ресторана, пекарь из Малаховки даже и не подозревал, как изменится его жизнь. Роскошные вечеринки в стиле «Великого Гэтсби», светские тусовки, выходные в Лондоне, вездесущие папарацци и море соблазнов – всё это и не только ждёт простого парня Андрея в мире Саши Лариной. Всё бы ничего, только позади остались оскорблённая экс-подружка, мечтающая о мести, и бывший парень Саши – сексуальный голливудский актёр, в планах которого вернуть Ларину...

Качество: WEB-DL 720p
Формат: MKV

Видео: MPEG-4 AVC, ~ 3500 Кбит/с, 1280x720
Аудио: AC3, 2 ch, 192 Кбит/с
скриншот  скриншот  скриншот  

Общее
Уникальный идентификатор : 76643675942093983134180011628147520478 (0x39A908F954910D2A894BF268A2E433DE)
Полное имя : E:\Пекарь и красавица.2019.WEB-DL720p\01.Пекарь и красавица.2019.WEB-DL720p.mkv
Формат : Matroska
Версия формата : Version 4 / Version 2
Размер файла : 617 Мбайт
Продолжительность : 23 м. 16 с.
Общий поток : 3704 Кбит/сек
Программа кодирования : Lavf57.71.100
Библиотека кодирования : Lavf57.71.100
ErrorDetectionType : Per level 1

Видео
Идентификатор : 1
Формат : AVC
Формат/Информация : Advanced Video Codec
Профиль формата : High@L4.1
Настройки формата : CABAC / 5 Ref Frames
Параметр CABAC формата : Да
Параметр RefFrames формата : 5 кадров
Идентификатор кодека : V_MPEG4/ISO/AVC
Продолжительность : 23 м. 16 с.
Битрейт : 3500 Кбит/сек
Ширина : 1280 пикселей
Высота : 720 пикселей
Соотношение сторон : 16:9
Режим частоты кадров : Постоянный
Частота кадров : 25,000 кадров/сек
Цветовое пространство : YUV
Субдискретизация насыщенности : 4:2:0
Битовая глубина : 8 бит
Тип развёртки : Прогрессивная
Бит/(Пиксели*Кадры) : 0.152
Размер потока : 573 Мбайт (93%)
Библиотека кодирования : x264 core 148
Настройки программы : cabac=1 / ref=5 / deblock=1:0:0 / analyse=0x3:0x113 / me=hex / subme=8 / psy=1 / psy_rd=1.00:0.00 / mixed_ref=1 / me_range=16 / chroma_me=1 / trellis=2 / 8x8dct=1 / cqm=0 / deadzone=21,11 / fast_pskip=1 / chroma_qp_offset=-2 / threads=22 / lookahead_threads=3 / sliced_threads=0 / nr=0 / decimate=1 / interlaced=0 / bluray_compat=0 / constrained_intra=0 / bframes=3 / b_pyramid=2 / b_adapt=1 / b_bias=0 / direct=3 / weightb=1 / open_gop=0 / weightp=2 / keyint=250 / keyint_min=25 / scenecut=0 / intra_refresh=0 / rc_lookahead=50 / rc=abr / mbtree=1 / bitrate=3500 / ratetol=1.0 / qcomp=0.60 / qpmin=0 / qpmax=69 / qpstep=4 / ip_ratio=1.40 / aq=1:1.00
Default : Да
Forced : Нет

Аудио
Идентификатор : 2
Формат : AC-3
Формат/Информация : Audio Coding 3
Идентификатор кодека : A_AC3
Продолжительность : 23 м. 16 с.
Вид битрейта : Постоянный
Битрейт : 192 Кбит/сек
Каналы : 2 канала
Расположение каналов : Front: L R
Частота : 44,1 КГц
Частота кадров : 28,711 кадров/сек (1536 SPF)
Битовая глубина : 16 бит
Метод сжатия : С потерями
Задержка видео : -80 мс.
Размер потока : 32,0 Мбайт (5%)
ServiceKind/String : Complete Main
Default : Да
Forced : Нет

Когда раздача ведётся путём добавления новых серий, при каждом добавлении создётся новый торрент. Чтобы начать докачку новой серии, пользователям необходимо сделать следующее:
(1) остановить скачивание,
(2) удалить старый торрент у себя из клиента (старые серии удалять не надо),
(3) скачать новый торрент и запустить его у себя в клиенте вместо старого, при этом указать клиенту путь в старую папку, куда и должно происходить скачивание новых серий.
Ваш клиент при этом должен произвести хеширование (проверку) старой папки (если не производит сам - помогите ему сделать это), и будет докачивать только те серии, которых у вас ещё нет. Старые серии при этом не удаляются, а продолжают раздаваться!
Eсли вы уже удалили старые серии, то предотвратить повторную закачку старых серий можно, отжав галочку в соответсвующих местах при запуске нового торрента. По возможности, желательно не удалять старые серии как можно дольше, чтобы релизер не столько продолжал раздавать старые серии, а смог сконцентрироваться на новых.
pb.wtf



Скачать Пекарь и Красавица через торрент https://d.radikal.ru/d20/1902/a1/177b78ee3e13.jpg Скачать фильм Пекарь и Красавица через торрент бесплантно в хорошем качестве Описание: Встретив суперзвезду в туалете ресторана, пекарь из Малаховки даже и не подозревал, как изменится его жизнь. Роскошные вечеринки ... 9.3 10 12
Торрент: Зарегистрирован [2019-03-01 02:58] · скачан: 150 раз
Статус: √ проверено
Размер: 10.22 GB
Как cкачать? Как скачать Пекарь и Красавица через торрент | qTorrent

% Раздел Тема Автор DL S | L
Наши сериалы [ 4.98 GB ] Пекарь и Красавица / Сезон: 1 / Серии: 1-17 из 17 [2019 WEB-DLRip] bober100 Скачать
2 | 0
Наши сериалы [ 4.98 GB ] Пекарь и Красавица / Сезон: 1 / Серии: 1-17 из 17 [2019 WEB-DLRip-AVC] bober100 Скачать
1 | 0

28-11-2019 20:33  

Отключить всю рекламу на сайте

01-03-2019 08:40 Пекарь и Красавица Скачать торрент  

ПК и консольщикpb.wtf



    Дорогой пользователь! Огромная просьба, поблагодарите релизера, оцените раздачу и оставьте свои комментарий, если Вы скачали Пекарь и Красавица через торрент бесплатно! Внесите свою лепту в развитие PiratBit!
    Комментировать посты могут только пользователи прошедшие не сложную регистрацию
    Показать сообщения:    

    Пекарь и Красавица через торрент
    Скачать бесплатно Пекарь и Красавица
    Пекарь и Красавица скачать торрент
    Пекарь и Красавица смотреть онлайн
    Cкачать фильм Пекарь и Красавица бесплатно
    Пекарь и Красавица скачать торрент в хорошем качестве
    Пекарь и Красавица смотреть онлайн бесплатно в хорошем качестве


    Вы не можете начинать темы
    Вы не можете отвечать на сообщения
    Вы не можете редактировать свои сообщения
    Вы не можете удалять свои сообщения
    Вы не можете голосовать в опросах
    Вы не можете прикреплять файлы к сообщениям
    Вы можете скачивать файлы