Ссылка на приватное зеркало всего за 1$. Внимание количество ограничено!!!

OK

1+1

iTunes

мы

OK

1

WEB-DLRip

Джокер

Пифагор

Ведьмак / The Witcher сериал

Лицензия

ПШазам

ОК

Оно 2

iTunes

30
pack

Вам бонус

ВАЖНО

!!Акция!!

Alien_RageХит недели

RePack

Resident Evil 21

ИГРА 18+

pack

RePack

jed

RePack

fifa19

RePack

Assassins Creed: Odyssey

RePack

NEED FOR SPEED™ PAYBACK

4 сезон

9 сезон

Бесстыжие 9 сезон

Все сериалы

все сериалы на PB.wtf

RePack

FAR CRY 5
  

Охотники за душами / Soul Hunters (Адриан Асеведо-Смит, Артуро Асеведо-Смит) [2019, Боевик, триллер, WEB-DL 720p] MVO ["Синема УС"] pb.wtf

Охотники за душами через торрент pb.wtf

Раздают: 1 [ 0 KB/s ]
Размер: 4.11 GB | Добавлен: 11 мес. назад | Торрент скачан:84 раза
Скачать  

11-02-2019 14:27 Охотники за душами Скачать торрент  

Охотники за душами / Soul HuntersГод выпуска: 2019
Страна: США
Жанр: Боевик, триллер
Продолжительность: 01:42:21
Перевод: Любительский (многоголосый) | "Синема УС"
Субтитры: отсутствуют

Режиссер: Адриан Асеведо-Смит, Артуро Асеведо-Смит

rating

В ролях:

Зак Шерер, Франциска Шисслер, Дэвид Джош Лоуренс, Николай Александров, Келси Джонсон, Тайлер Коул, Арамис Мерлин, Дэвид Сауседо, Ками Д. Брудер, Мишель Александрия

Описание:

Дискредитированный бывший спецназовец соглашается на работу охотника за душами, предложенную ему демоном. Когда его бывший коллега становится серийным убийцей, выбрав своей главной целью охотника за душами, воцаряется хаос.

Качество: WEB-DL 720p
Формат: MKV

Видео: XviD,5 363 kb/s, 1280x720
Аудио#1: Русский, (AC3, 2 ch, 384 Кбит/с)
скриншот  скриншот  скриншот  

Общее
Уникальный идентификатор : 252741748535783830084965407266701996124 (0xBE244A4897E0F439AD08358349EA705C)
Полное имя : E:\торреннты\Soul.Hunters.2019.P.WEB-DL.72Op_KOSHARA.mkv
Формат : Matroska
Версия формата : Version 2
Размер файла : 4,11 Гбайт
Продолжительность : 1 ч. 42 м.
Режим общего битрейта : Переменный
Общий поток : 5749 Кбит/сек
Дата кодирования : UTC 2019-02-11 03:25:09
Программа кодирования : mkvmerge v8.3.0 ('Over the Horizon') 64bit
Библиотека кодирования : libebml v1.3.1 + libmatroska v1.4.2

Видео
Идентификатор : 1
Формат : AVC
Формат/Информация : Advanced Video Codec
Профиль формата : High@L4.1
Настройки формата : CABAC / 4 Ref Frames
Параметр CABAC формата : Да
Параметр RefFrames формата : 4 кадра
Идентификатор кодека : V_MPEG4/ISO/AVC
Продолжительность : 1 ч. 42 м.
Вид битрейта : Переменный
Битрейт : 5363 Кбит/сек
Максимальный битрейт : 6000 Кбит/сек
Ширина : 1280 пикселей
Высота : 720 пикселей
Соотношение сторон : 16:9
Режим частоты кадров : Постоянный
Частота кадров : 23,976 (24000/1001) кадра/сек
Стандарт вещания : Component
Цветовое пространство : YUV
Субдискретизация насыщенности : 4:2:0
Битовая глубина : 8 бит
Тип развёртки : Прогрессивная
Бит/(Пиксели*Кадры) : 0.238
Размер потока : 3,75 Гбайт (91%)
Default : Да
Forced : Нет
Цветовой диапазон : Limited
Основные цвета : BT.709
Характеристики трансфера : BT.709
Коэффициенты матрицы : BT.709

Аудио
Идентификатор : 2
Формат : AC-3
Формат/Информация : Audio Coding 3
Идентификатор кодека : A_AC3
Продолжительность : 1 ч. 42 м.
Вид битрейта : Постоянный
Битрейт : 384 Кбит/сек
Каналы : 2 канала
Расположение каналов : Front: L R
Частота : 48,0 КГц
Частота кадров : 31,250 кадров/сек (1536 SPF)
Битовая глубина : 16 бит
Метод сжатия : С потерями
Размер потока : 281 Мбайт (7%)
ServiceKind/String : Complete Main
Default : Да
Forced : Нет

pb.wtf



Скачать Охотники за душами через торрент https://d.radikal.ru/d07/1902/73/b3139c3bb01f.jpg Скачать фильм Охотники за душами через торрент бесплантно в хорошем качестве Описание: Дискредитированный бывший спецназовец соглашается на работу охотника за душами, предложенную ему демоном. Когда его бывший ... 9.1 10 8
Торрент: Зарегистрирован [2019-02-11 14:27] · скачан: 84 раз
Статус: T временная
Размер: 4.11 GB
Как cкачать? Как скачать Охотники за душами через торрент | qTorrent

% Раздел Тема Автор DL S | L
T Фильмы 2019-2020 [DVDrip, WEB-DLRip, HDrip] (DUB, MVO) [ 1.44 GB ] Охотники за душами / Soul Hunters [2019 WEB-DLRip-AVC] MVO [HDRezka Studio] - ExKinoRay Enigma2010 Скачать
3 | 0
T Фильмы (мультфильмы) cо спонсором показа (Новинки AVI/MKV) [ 1.36 GB ] Охотники за душами / Soul Hunters [2019 WEB-DLRip] MVO ["Синема УС"] bober100 Скачать
1 | 0

28-11-2019 20:33  

Отключить всю рекламу на сайте

11-02-2019 14:48 Охотники за душами Скачать торрент  

Скрины просто зашибись как информативныpb.wtf



12-02-2019 06:15 Охотники за душами Скачать торрент  

Особенно перый:)pb.wtf



12-02-2019 14:42 Охотники за душами Скачать торрент  

Самые интересные моменты в фильме запечатлелиpb.wtf



    Дорогой пользователь! Огромная просьба, поблагодарите релизера, оцените раздачу и оставьте свои комментарий, если Вы скачали Охотники за душами через торрент бесплатно! Внесите свою лепту в развитие PiratBit!
    Комментировать посты могут только пользователи прошедшие не сложную регистрацию
    Показать сообщения:    

    Охотники за душами через торрент
    Скачать бесплатно Охотники за душами
    Охотники за душами скачать торрент
    Охотники за душами смотреть онлайн
    Cкачать фильм Охотники за душами бесплатно
    Охотники за душами скачать торрент в хорошем качестве
    Охотники за душами смотреть онлайн бесплатно в хорошем качестве


    Вы не можете начинать темы
    Вы не можете отвечать на сообщения
    Вы не можете редактировать свои сообщения
    Вы не можете удалять свои сообщения
    Вы не можете голосовать в опросах
    Вы не можете прикреплять файлы к сообщениям
    Вы можете скачивать файлы