Ссылка на приватное зеркало всего за 1$. Внимание количество ограничено!!!

OK

1+1

iTunes

мы

OK

1

WEB-DLRip

Джокер

Пифагор

Ведьмак / The Witcher сериал

iTunes

ПШазам

ОК

Оно 2

iTunes

30
pack

Вам бонус

ВАЖНО

!!Акция!!

Alien_RageХит недели

RePack

Resident Evil 21

ИГРА 18+

pack

RePack

jed

RePack

fifa19

RePack

Assassins Creed: Odyssey

RePack

NEED FOR SPEED™ PAYBACK

4 сезон

9 сезон

Бесстыжие 9 сезон

Все сериалы

все сериалы на PB.wtf

RePack

FAR CRY 5
  

Зло внутри / The Evil Inside (Карло Бальдаччи Карли) [2017, Ужасы, детектив, WEB-DL 720p] MVO ["Синема УС"] pb.wtf

Зло внутри через торрент pb.wtf

Размер: 4.59 GB | Добавлен: 11 мес. назад | Торрент скачан:49 раз
Скачать  

11-02-2019 14:39 Зло внутри Скачать торрент  

Зло внутри / The Evil Inside Год выпуска: 2017
Страна: США, Италия
Жанр: Ужасы, детектив
Продолжительность: 01:55:11
Перевод: Любительский (многоголосый) | "Синема УС"
Субтитры: отсутствуют

Режиссер: Карло Бальдаччи Карли

rating

В ролях:

Витторио Босколо, Тим Дайш, Аурелия Бонта, Козетта Турко, Росселла Амброзини, Сильвия Тодеска, Роберто Качаво, Джон Добрынин, Энрика Печчиоли, Антонио Д'Онофрио

Описание:

Восемнадцатый век. Джон Кавендиш, шотландский авантюрист, приезжает в Тоскану и делает состояние благодаря знаниям ботаники и сельского хозяйства. Маркус Кавендиш, американский художник и плейбой, погрязший в долгах, получает письмо от Кьяры Конти, итальянского адвоката, которая сообщает ему, что он принадлежит роду Кавендишей. Она считает, что Муркус — наследник Питера Кавендиша, последнего потомка Джона Кавендиша. Полагая, что это потенциальное состояние может решить все его денежные проблемы - и может даже помочь разобраться в его голове - Маркус едет в Тоскану, чтобы получить свое наследство. Прибыв в замок Кавендиш, Маркус обнаруживает древнее зло, которое мучило его семью на протяжении столетий. Он понимает, что деньги, собственность и земля мало что значат, когда ты сталкиваешься с проклятием крови.

Качество: WEB-DL 720p
Формат: MKV

Видео: h.264,5 323 kb/s, 1280x536
Аудио#1: Русский, (AC3, 2 ch, 384 Кбит/с)
скриншот  скриншот  скриншот  

Общее
Уникальный идентификатор : 179724873348717549312800148771639797320 (0x8735C0647D57802C959253FF810E2648)
Полное имя : E:\торреннты\The.Evil.Inside.2017.P.WEB-DL.72Op_KOSHARA.mkv
Формат : Matroska
Версия формата : Version 2
Размер файла : 4,59 Гбайт
Продолжительность : 1 ч. 55 м.
Режим общего битрейта : Переменный
Общий поток : 5709 Кбит/сек
Дата кодирования : UTC 2019-02-10 18:25:59
Программа кодирования : mkvmerge v8.3.0 ('Over the Horizon') 64bit
Библиотека кодирования : libebml v1.3.1 + libmatroska v1.4.2

Видео
Идентификатор : 1
Формат : AVC
Формат/Информация : Advanced Video Codec
Профиль формата : High@L4.1
Настройки формата : CABAC / 4 Ref Frames
Параметр CABAC формата : Да
Параметр RefFrames формата : 4 кадра
Идентификатор кодека : V_MPEG4/ISO/AVC
Продолжительность : 1 ч. 55 м.
Вид битрейта : Переменный
Битрейт : 5323 Кбит/сек
Максимальный битрейт : 6000 Кбит/сек
Ширина : 1280 пикселей
Высота : 536 пикселей
Соотношение сторон : 2,40:1
Режим частоты кадров : Постоянный
Частота кадров : 23,976 (24000/1001) кадра/сек
Стандарт вещания : Component
Цветовое пространство : YUV
Субдискретизация насыщенности : 4:2:0
Битовая глубина : 8 бит
Тип развёртки : Прогрессивная
Бит/(Пиксели*Кадры) : 0.317
Размер потока : 4,19 Гбайт (91%)
Default : Да
Forced : Нет
Цветовой диапазон : Limited
Основные цвета : BT.709
Характеристики трансфера : BT.709
Коэффициенты матрицы : BT.709

Аудио
Идентификатор : 2
Формат : AC-3
Формат/Информация : Audio Coding 3
Идентификатор кодека : A_AC3
Продолжительность : 1 ч. 55 м.
Вид битрейта : Постоянный
Битрейт : 384 Кбит/сек
Каналы : 2 канала
Расположение каналов : Front: L R
Частота : 48,0 КГц
Частота кадров : 31,250 кадров/сек (1536 SPF)
Битовая глубина : 16 бит
Метод сжатия : С потерями
Размер потока : 316 Мбайт (7%)
ServiceKind/String : Complete Main
Default : Да
Forced : Нет

pb.wtf



Скачать Зло внутри через торрент https://b.radikal.ru/b08/1902/31/fa6262b3270d.jpg Скачать фильм Зло внутри через торрент бесплантно в хорошем качестве Описание: Восемнадцатый век. Джон Кавендиш, шотландский авантюрист, приезжает в Тоскану и делает состояние благодаря знаниям ботаники и ... 10 10 3
Торрент: Зарегистрирован [2019-02-11 14:39] · скачан: 49 раз
Статус: T временная
Размер: 4.59 GB
Как cкачать? Как скачать Зло внутри через торрент | qTorrent

% Раздел Тема Автор DL S | L
T Фильмы (мультфильмы) cо спонсором показа (Новинки AVI/MKV) [ 3.15 GB ] Зло внутри нее / The Evil Inside Her [2019 WEB-DL 720p] MVO ["Синема УС"] bober100 Скачать
2 | 0
T Фильмы (мультфильмы) cо спонсором показа (Новинки AVI/MKV) [ 1.37 GB ] Зло внутри нее / The Evil Inside Her [2019 WEB-DLRip] MVO ["Синема УС"] bober100 Скачать
2 | 0
T Фильмы (мультфильмы) cо спонсором показа (Новинки AVI/MKV) [ 1.46 GB ] Зло внутри / The Evil Inside [2017 WEB-DLRip] MVO ["Синема УС"] bober100 Скачать
2 | 0

28-11-2019 20:33  

Отключить всю рекламу на сайте

11-02-2019 14:57 Зло внутри Скачать торрент  

Прибыв в замок Кавендиш, Маркус обнаруживает древнее зло, которое мучило его семью на протяжении столетий...бухую ТЁЩУ. Он понимает, что деньги, собственность и земля мало что значат,если вовремя не дать ей похмелиться...Вот с таким сюжетом фильм бы посмотрел,а так...pb.wtf



    Дорогой пользователь! Огромная просьба, поблагодарите релизера, оцените раздачу и оставьте свои комментарий, если Вы скачали Зло внутри через торрент бесплатно! Внесите свою лепту в развитие PiratBit!
    Комментировать посты могут только пользователи прошедшие не сложную регистрацию
    Показать сообщения:    

    Зло внутри через торрент
    Скачать бесплатно Зло внутри
    Зло внутри скачать торрент
    Зло внутри смотреть онлайн
    Cкачать фильм Зло внутри бесплатно
    Зло внутри скачать торрент в хорошем качестве
    Зло внутри смотреть онлайн бесплатно в хорошем качестве


    Вы не можете начинать темы
    Вы не можете отвечать на сообщения
    Вы не можете редактировать свои сообщения
    Вы не можете удалять свои сообщения
    Вы не можете голосовать в опросах
    Вы не можете прикреплять файлы к сообщениям
    Вы можете скачивать файлы