Ссылка на приватное зеркало всего за 1$. Внимание количество ограничено!!!

OK

1+1

iTunes

мы

OK

1

WEB-DLRip

Джокер

Пифагор

Ведьмак / The Witcher сериал

iTunes

ПШазам

ОК

Оно 2

iTunes

30
pack

Вам бонус

ВАЖНО

!!Акция!!

Alien_RageХит недели

RePack

Resident Evil 21

ИГРА 18+

pack

RePack

jed

RePack

fifa19

RePack

Assassins Creed: Odyssey

RePack

NEED FOR SPEED™ PAYBACK

4 сезон

9 сезон

Бесстыжие 9 сезон

Все сериалы

все сериалы на PB.wtf

RePack

FAR CRY 5
  

Двойное эхо / Double Echo (Уильям Коллинсон) [2017, триллер, драма, WEB-DL 720p] MVO ["Синема УС"] pb.wtf

Двойное эхо через торрент pb.wtf

Размер: 3.56 GB | Добавлен: 11 мес. назад | Торрент скачан:43 раза
Скачать  

11-02-2019 15:06 Двойное эхо Скачать торрент  

Двойное эхо / Double EchoГод выпуска: 2017
Страна: ЮАР
Жанр: триллер, драма
Продолжительность: 01:30:19
Перевод: Любительский (многоголосый) | "Синема УС"
Субтитры: отсутствуют

Режиссер: Уильям Коллинсон

rating

В ролях:

Брэндон Оре, Амалия Уйс, Грэм Кларк, Аня Тальяард, Ванесса Ли, Шон Майкл, Шамилла Миллер, Клинтон Смолл, Юджин Диппенаар, Перси Мабоане

Описание:

Главный герой ушел из полиции из-за того, что по случайности убил своего напарника. Теперь он водитель богатого человека, у которого похитили дочь. Он поможет спасти девочку, одновременно обнажив годами скрываемые семейные тайны.

Качество: WEB-DL 720p
Формат: MKV

Видео: h.264,5 257 kb/s, 1280x544
Аудио#1: Русский, (AC3, 2 ch, 384 Кбит/с)
скриншот  скриншот  скриншот  

Общее
Уникальный идентификатор : 192864152855725972349374865407270134957 (0x911848E34DA02BE9870B218856BF24AD)
Полное имя : E:\торреннты\Double.Echo.2019.P.WEB-DL.72Op_KOSHARA.mkv
Формат : Matroska
Версия формата : Version 2
Размер файла : 3,56 Гбайт
Продолжительность : 1 ч. 30 м.
Режим общего битрейта : Переменный
Общий поток : 5643 Кбит/сек
Дата кодирования : UTC 2019-02-10 10:21:54
Программа кодирования : mkvmerge v8.3.0 ('Over the Horizon') 64bit
Библиотека кодирования : libebml v1.3.1 + libmatroska v1.4.2

Видео
Идентификатор : 1
Формат : AVC
Формат/Информация : Advanced Video Codec
Профиль формата : High@L4.1
Настройки формата : CABAC / 4 Ref Frames
Параметр CABAC формата : Да
Параметр RefFrames формата : 4 кадра
Идентификатор кодека : V_MPEG4/ISO/AVC
Продолжительность : 1 ч. 30 м.
Вид битрейта : Переменный
Битрейт : 5257 Кбит/сек
Максимальный битрейт : 6000 Кбит/сек
Ширина : 1280 пикселей
Высота : 544 пикселя
Соотношение сторон : 2,35:1
Режим частоты кадров : Постоянный
Частота кадров : 23,976 (24000/1001) кадра/сек
Стандарт вещания : Component
Цветовое пространство : YUV
Субдискретизация насыщенности : 4:2:0
Битовая глубина : 8 бит
Тип развёртки : Прогрессивная
Бит/(Пиксели*Кадры) : 0.308
Размер потока : 3,25 Гбайт (91%)
Default : Да
Forced : Нет
Цветовой диапазон : Limited
Основные цвета : BT.709
Характеристики трансфера : BT.709
Коэффициенты матрицы : BT.709

Аудио
Идентификатор : 2
Формат : AC-3
Формат/Информация : Audio Coding 3
Идентификатор кодека : A_AC3
Продолжительность : 1 ч. 30 м.
Вид битрейта : Постоянный
Битрейт : 384 Кбит/сек
Каналы : 2 канала
Расположение каналов : Front: L R
Частота : 48,0 КГц
Частота кадров : 31,250 кадров/сек (1536 SPF)
Битовая глубина : 16 бит
Метод сжатия : С потерями
Размер потока : 248 Мбайт (7%)
ServiceKind/String : Complete Main
Default : Да
Forced : Нет

pb.wtf



Скачать Двойное эхо через торрент https://a.radikal.ru/a20/1902/b5/655bf62b8ad1.jpg Скачать фильм Двойное эхо через торрент бесплантно в хорошем качестве Описание: Главный герой ушел из полиции из-за того, что по случайности убил своего напарника. Теперь он водитель богатого человека, у ... 10 10 2
Торрент: Зарегистрирован [2019-02-11 15:06] · скачан: 43 раз
Статус: T временная
Размер: 3.56 GB
Как cкачать? Как скачать Двойное эхо через торрент | qTorrent

% Раздел Тема Автор DL S | L
T Фильмы 2017 [DVDrip, WEB-DLRip, HDrip] (DUB, MVO) [ 1.37 GB ] Двойное эхо / Double Echo [2017 WEB-DLRip] MVO [HDRezka studio] - ExKinoRay Enigma2010 Скачать
3 | 0
T Фильмы (WEB-DL 720p, 1080p) [ 4.11 GB ] Двойное эхо / Double Echo [2017 WEB-DL 1080p] MVO [HDREzka studio] - ExKinoRay Enigma2010 Скачать
1 | 0
T Фильмы (мультфильмы) cо спонсором показа (Новинки AVI/MKV) [ 1.37 GB ] Двойное эхо / Double Echo [2017 WEB-DLRip] MVO ["Синема УС"] bober100 Скачать
1 | 0

28-11-2019 20:33  

Отключить всю рекламу на сайте

    Дорогой пользователь! Огромная просьба, поблагодарите релизера, оцените раздачу и оставьте свои комментарий, если Вы скачали Двойное эхо через торрент бесплатно! Внесите свою лепту в развитие PiratBit!
    Комментировать посты могут только пользователи прошедшие не сложную регистрацию
    Показать сообщения:    

    Двойное эхо через торрент
    Скачать бесплатно Двойное эхо
    Двойное эхо скачать торрент
    Двойное эхо смотреть онлайн
    Cкачать фильм Двойное эхо бесплатно
    Двойное эхо скачать торрент в хорошем качестве
    Двойное эхо смотреть онлайн бесплатно в хорошем качестве


    Вы не можете начинать темы
    Вы не можете отвечать на сообщения
    Вы не можете редактировать свои сообщения
    Вы не можете удалять свои сообщения
    Вы не можете голосовать в опросах
    Вы не можете прикреплять файлы к сообщениям
    Вы можете скачивать файлы