Ссылка на приватное зеркало нашего сайта всего за 1$. Внимание количество ограничено!!!

2 сезон

iTunes

1 сезон

1

2 сезон

2 сезон

iTunes

1 сезон

RePack

30

Новинка

ВАЖНО

ИГРА 18+

pack

RePack

MK11
pack

Забери бонус

RePack

jed

!!Акция!!

Alien_Rage

RePack

fifa19

RePack

Assassins Creed: Odyssey

RePack

NEED FOR SPEED™ PAYBACK

4 сезон

9 сезон

Бесстыжие 9 сезон

Все сериалы

все сериалы на PB.wtf

RePack

FAR CRY 5
  

Как не стать президентом / The Front Runner (Джейсон Рейтмен) [2018, Драма, биография, история, WEB-DL 1080p] [MVO] [iTunes] pb.wtf

Как не стать президентом через торрент pb.wtf

Раздают: 2 [ 0 KB/s ]
Размер: 4.76 GB | Добавлен: 1 год 9 мес. назад | Торрент скачан:238 раз
Скачать  

11-02-2019 18:47 Как не стать президентом Скачать торрент  

Как не стать президентом / The Front Runner Год выпуска: 2018
Страна: США
Жанр: Драма, биография, история
Продолжительность: 01:53:33
Перевод: Профессиональный многоголосый [iTunes]

Режиссер: Джейсон Рейтмен

В ролях: Хью Джекман, Вера Фармига, Джонатан Кимбл Симмонс, Марк О’Брайэн, Молли Эфраим, Крис Кой, Алекс Карповски, Джош Бренер, Томми Дьюи, Кейтлин Дивер

Описание: На президентских выборах в США в 1988 году у сенатора Гэри Харта были все шансы занять кресло в Белом доме, однако один его проступок — супружеская измена — пустил его политическую карьеру под откос и заставил покинуть президентскую гонку. Немаловажную роль в этой истории взлета и падения, повлиявшей не только на американскую, но и на мировую политику, сыграли журналисты.

ratingскриншот  

Тип релиза: WEB-DL 1080p
Контейнер: MKV
Видео: MPEG-4 AVC, 5120 Кбит/с, 1920x1032
Аудио 1: Русский AC3, 48 KHz, 6 ch, 384 kbps
Аудио 2: Английский AC3, 48 KHz, 6 ch, 384 kbps
Video

ID : 1

Format : AVC

Format/Info : Advanced Video Codec

Format profile : High@L4

Format settings : CABAC / 4 Ref Frames

Format settings, CABAC : Yes

Format settings, RefFrames : 4 frames

Codec ID : V_MPEG4/ISO/AVC

Duration : 1 h 53 min

Bit rate : 5 120 kb/s

Width : 1 920 pixels

Height : 1 032 pixels

Display aspect ratio : 1.85:1

Frame rate mode : Constant

Frame rate : 23.976 FPS

Color space : YUV

Chroma subsampling : 4:2:0

Bit depth : 8 bits

Scan type : Progressive

Bits/(Pixel*Frame) : 0.108

Stream size : 4.06 GiB (85%)

Language : Russian

Default : Yes

Forced : No

Color range : Limited

Color primaries : BT.709

Transfer characteristics : BT.709

Matrix coefficients : BT.709

Audio #1

ID : 2

Format : AC-3

Format/Info : Audio Coding 3

Format settings, Endianness : Big

Codec ID : A_AC3

Duration : 1 h 53 min

Bit rate mode : Constant

Bit rate : 384 kb/s

Channel(s) : 6 channels

Channel positions : Front: L C R, Side: L R, LFE

Sampling rate : 48.0 kHz

Frame rate : 31.250 FPS (1536 SPF)

Bit depth : 16 bits

Compression mode : Lossy

Stream size : 312 MiB (6%)

Title : uniongang.org

Language : Russian

Service kind : Complete Main

Default : Yes

Forced : No

Audio #2

ID : 3

Format : AC-3

Format/Info : Audio Coding 3

Format settings, Endianness : Big

Codec ID : A_AC3

Duration : 1 h 53 min

Bit rate mode : Constant

Bit rate : 384 kb/s

Channel(s) : 6 channels

Channel positions : Front: L C R, Side: L R, LFE

Sampling rate : 48.0 kHz

Frame rate : 31.250 FPS (1536 SPF)

Bit depth : 16 bits

Compression mode : Lossy

Stream size : 312 MiB (6%)

Title : uniongang.org

Language : English

Service kind : Complete Main

Default : No

Forced : No

Menu

00:00:00.000 : en:1
00:08:02.607 : en:2
00:14:56.812 : en:3
00:19:32.503 : en:4
00:27:22.930 : en:5
00:34:31.942 : en:6
00:40:28.632 : en:7
00:45:55.749 : en:8
00:51:07.310 : en:9
00:58:52.107 : en:10
01:09:05.929 : en:11
01:15:57.757 : en:12
01:22:31.650 : en:13
01:29:28.732 : en:14
01:34:40.501 : en:15
01:41:31.912 : en:16
скриншот  скриншот  скриншот  
pb.wtf



Скачать Как не стать президентом через торрент https://i109.fastpic.ru/big/2019/0211/71/d3974ac4f89e8d2739ca09e99bd47b71.jpg Скачать фильм Как не стать президентом через торрент бесплантно в хорошем качестве Описание: На президентских выборах в США в 1988 году у сенатора Гэри Харта были все шансы занять кресло в Белом доме, однако один его ... 10 10 6
Торрент: Зарегистрирован [2019-02-11 18:47] · скачан: 238 раз
Статус: √ проверено
Размер: 4.76 GB
Как cкачать? Как скачать Как не стать президентом через торрент | qTorrent

% Раздел Тема Автор DL S | L
Фильмы 2018 [DVDrip, WEB-DLRip, HDrip] (DUB, MVO) [ 2.18 GB ] Как не стать президентом / The Front Runner [2018 биография история BDRip] MVO [] Twi7ter Скачать
1 | 0
Фильмы [HD 720p, 1080p] (Хороший звук DUB, MVO) [ 7.29 GB ] Как не стать президентом / The Front Runner [2018 биография история BDRip 720p] MVO [] bober100 Скачать
1 | 0
Фильмы [HD 720p, 1080p] (Хороший звук DUB, MVO) [ 10.03 GB ] Как не стать президентом / The Front Runner [2018 биография история BDRip 1080p] MVO [] bober100 Скачать
1 | 0
Фильмы 2018 [DVDrip, WEB-DLRip, HDrip] (DUB, MVO) [ 2.18 GB ] Как не стать президентом / The Front Runner [2018 биография история BDRip] MVO [ BD EUR] bober100 Скачать
1 | 0
Фильмы 2018 [DVDrip, WEB-DLRip, HDrip] (DUB, MVO) [ 2.45 GB ] Как не стать президентом / The Front Runner [2018 биография история BDRip-AVC] MVO [] bober100 Скачать
1 | 0
Фильмы 2018 [DVDrip, WEB-DLRip, HDrip] (DUB, MVO) [ 1.46 GB ] Как не стать президентом / The Front Runner [2018 биография история BDRip] MVO [ BD EUR] bober100 Скачать
1 | 0
Фильмы 2018 [DVDrip, WEB-DLRip, HDrip] (DUB, MVO) [ 1.46 GB ] Как не стать президентом / The Front Runner [2018 биография история BDRip] MVO [] Twi7ter Скачать
1 | 0

28-11-2019 20:33  

Отключить всю рекламу на сайте

12-02-2019 05:42 Как не стать президентом Скачать торрент  

Топик был перенесен из форума Фильмы [HD 720p, 1080p] (Хороший звук DUB, MVO) в форум Фильмы (WEB-DL 720p, 1080p)


bober100pb.wtf



    Дорогой пользователь! Огромная просьба, поблагодарите релизера, оцените раздачу и оставьте свои комментарий, если Вы скачали Как не стать президентом через торрент бесплатно! Внесите свою лепту в развитие PiratBit!
    Комментировать посты могут только пользователи прошедшие не сложную регистрацию
    Показать сообщения:    

    Как не стать президентом через торрент
    Скачать бесплатно Как не стать президентом
    Как не стать президентом скачать торрент
    Как не стать президентом смотреть онлайн
    Cкачать фильм Как не стать президентом бесплатно
    Как не стать президентом скачать торрент в хорошем качестве
    Как не стать президентом смотреть онлайн бесплатно в хорошем качестве


    Вы не можете начинать темы
    Вы не можете отвечать на сообщения
    Вы не можете редактировать свои сообщения
    Вы не можете удалять свои сообщения
    Вы не можете голосовать в опросах
    Вы не можете прикреплять файлы к сообщениям
    Вы можете скачивать файлы