Ссылка на приватное зеркало нашего сайта всего за 1$. Внимание количество ограничено!!!

2 сезон

iTunes

1 сезон

1

iTunes

iTunes

iTunes

1 сезон

RePack

30

ИГРА 18+

pack

ВАЖНО

!!Акция!!

Alien_RageХит недели

RePack

MK11
pack

Забери бонус

RePack

jed

!!Акция!!

Alien_Rage

RePack

fifa19

RePack

Assassins Creed: Odyssey

RePack

NEED FOR SPEED™ PAYBACK

4 сезон

9 сезон

Бесстыжие 9 сезон

Все сериалы

все сериалы на PB.wtf

RePack

FAR CRY 5
  

Невский.Чужой среди чужих / Сезон: 3 / Серии: 1- 20 из 20 (Михаил Вассербаум) [2019 г., Детектив, драма, криминал, WEB-DLRip] pb.wtf

Невский.Чужой среди чужих через торрент pb.wtf

Раздают: 1 [ 0 KB/s ]
Размер: 11.74 GB | Добавлен: 1 год 8 мес. назад | Торрент скачан:180 раз
Скачать  

12-02-2019 04:00 Невский.Чужой среди чужих Скачать торрент  

Невский. Чужой среди чужих
Год выпуска: 2019
Страна: Россия
Жанр: Детектив, драма, криминал
Продолжительность: 20 х~ 00:48:00
Субтитры: Отсутствуют

Режиссер: Михаил Вассербаум

В ролях: Антон Васильев (III), Андрей Гульнев, Мария Капустинская, Сергей Кошонин, Дмитрий Паламарчук, Роман Притула, Юрий Архангельский, Антон Сычёв, Алексей Штукин, Евгения Глотова, Пётр Харченко, Елена Шаманова, Валентина Лебедева, Анастасия Забирова, Руслан Бальбуциев, Анна Дулова

Описание: Павел Семёнов, оправившись после тяжелого ранения, не хочет возвращаться в УМВД, начальником которого стал Арсеньев. Павел принимает предложение своего друга Алексея Фомина возглавить его службу безопасности, хотя его и тяготит перспектива превратиться из полицейского в бандита. Тем временем вышедшая из колонии Юля Семёнова пытается адаптироваться к жизни на свободе, но все время сталкивается с предубеждениями и злобой. Между тем, в Северной столице набирает обороты конфликт между Фомой и Арсеньевым…

Качество: WEB-DLRip
Формат: AVI
Видео кодек: XviD
Аудио кодек: AC3
Видео: XviD, ~ 1600 Кбит/с, 720x400
Аудио#1: AC3, 2 ch, 192 Кбит/с
скриншот   скриншот   скриншот   скриншот  

General
Complete name : H:\релизы.торрентфайл\Невский-3. Чужой среди чужих.2019.WEB-DLRip.RG.Russkie.serialy.&.drakula05\01.Невский-3. Чужой среди чужих.2019.WEB-DLRip.RG.Russkie.serialy.&.drakula05.avi
Format : AVI
Format/Info : Audio Video Interleave
File size : 585 MiB
Duration : 48mn 6s
Overall bit rate : 1 702 Kbps
Writing application : VirtualDubMod 1.5.10.3 | www.virtualdub-fr.org || (build 2550/release)
Writing library : VirtualDubMod build 2550/release

Video
ID : 0
Format : MPEG-4 Visual
Format profile : Advanced Simple@L5
Format settings, BVOP : 1
Format settings, QPel : No
Format settings, GMC : No warppoints
Format settings, Matrix : Custom
Codec ID : XVID
Codec ID/Hint : XviD
Duration : 48mn 6s
Bit rate : 1 500 Kbps
Width : 720 pixels
Height : 400 pixels
Display aspect ratio : 16:9
Frame rate : 25.000 fps
Color space : YUV
Chroma subsampling : 4:2:0
Bit depth : 8 bits
Scan type : Progressive
Compression mode : Lossy
Bits/(Pixel*Frame) : 0.208
Stream size : 516 MiB (88%)
Writing library : XviD 73

Audio
ID : 1
Format : AC-3
Format/Info : Audio Coding 3
Mode extension : CM (complete main)
Format settings, Endianness : Big
Codec ID : 2000
Duration : 48mn 6s
Bit rate mode : Constant
Bit rate : 192 Kbps
Channel(s) : 2 channels
Channel positions : Front: L R
Sampling rate : 48.0 KHz
Bit depth : 16 bits
Compression mode : Lossy
Stream size : 66.1 MiB (11%)
Alignment : Split accross interleaves
Interleave, duration : 40 ms (1.00 video frame)
Interleave, preload duration : 500 ms

Внимание! Раздача ведётся путём добавления новых серий; при каждом добавлении создётся новый торрент. Чтобы начать докачку новой серии, пользователям необходимо сделать следующее:
  • Остановить скачивание,
  • Удалить старый торрент у себя из клиента (старые серии удалять не надо),
  • Скачать новый торрент и запустить его у себя в клиенте вместо старого, при этом указать клиенту путь в старую папку куда и должно происходить скачивание новых серий.
Ваш клиент при этом должен произвести хеширование (проверку) старой папки (если не производит сам - помогите ему сделать это), и будет докачивать только те серии которых у вас ещё нет. Старые серии при этом не удаляются, а продолжают раздаваться!

Eсли вы уже удалили старые серии, то предотвратить повторную закачку старых серий можно, отжав галочку в соответсвующих местах при запуске нового торрента. По возможности, желательно не удалять старые серии как можно дольше чтобы релизёр не столько продолжал раздавать старые серии, а смог сконцентрироваться на новых.
pb.wtf



Скачать Невский.Чужой среди чужих через торрент http://pic1.kartinco.top/images/12/b3irx.jpg Скачать фильм Невский.Чужой среди чужих через торрент бесплантно в хорошем качестве Описание: Павел Семёнов, оправившись после тяжелого ранения, не хочет возвращаться в УМВД, начальником которого стал Арсеньев. Павел ... 9.6 10 15
Торрент: Зарегистрирован [2019-02-23 04:12] · скачан: 180 раз
Статус: √ проверено
Размер: 11.74 GB
Как cкачать? Как скачать Невский.Чужой среди чужих через торрент | qTorrent

% Раздел Тема Автор DL S | L
Наши сериалы [ 42.58 GB ] Невский. Чужой Среди Чужих / Сезон: 3 / Серии: 1-20 из 20 [2019 WEB-DL 1080p] bober100 Скачать
1 | 0
Наши сериалы [ 25.47 GB ] Невский. Чужой Среди Чужих / Сезон: 3 / Серии: 1-20 из 20 [2019 WEBRip 720p] bober100 Скачать
1 | 0
Наши сериалы [ 15.13 GB ] Невский. Чужой среди чужих / Сезон: 3 / Серии: 1-20 из 20 [2019 WEBRip-AVC] aleksan55 Скачать
1 | 0
Наши сериалы [ 11.72 GB ] Невский. Чужой Среди Чужих / Сезон: 3 / Серии: 1-20 из 20 [2019 SATRip] bober100 Скачать
1 | 0


Последний раз редактировалось: oleg8 (2019-02-23 04:12), всего редактировалось 4 раз(а)

28-11-2019 20:33  

Отключить всю рекламу на сайте

    Дорогой пользователь! Огромная просьба, поблагодарите релизера, оцените раздачу и оставьте свои комментарий, если Вы скачали Невский.Чужой среди чужих через торрент бесплатно! Внесите свою лепту в развитие PiratBit!
    Комментировать посты могут только пользователи прошедшие не сложную регистрацию
    Показать сообщения:    

    Невский.Чужой среди чужих через торрент
    Скачать бесплатно Невский.Чужой среди чужих
    Невский.Чужой среди чужих скачать торрент
    Невский.Чужой среди чужих смотреть онлайн
    Cкачать фильм Невский.Чужой среди чужих бесплатно
    Невский.Чужой среди чужих скачать торрент в хорошем качестве
    Невский.Чужой среди чужих смотреть онлайн бесплатно в хорошем качестве


    Вы не можете начинать темы
    Вы не можете отвечать на сообщения
    Вы не можете редактировать свои сообщения
    Вы не можете удалять свои сообщения
    Вы не можете голосовать в опросах
    Вы не можете прикреплять файлы к сообщениям
    Вы можете скачивать файлы