Ссылка на приватное зеркало нашего сайта всего за 1$. Внимание количество ограничено!!!

2 сезон

iTunes

1 сезон

1

2 сезон

2 сезон

iTunes

1 сезон

RePack

30

Новинка

ВАЖНО

ИГРА 18+

pack

RePack

MK11
pack

Забери бонус

RePack

jed

!!Акция!!

Alien_Rage

RePack

fifa19

RePack

Assassins Creed: Odyssey

RePack

NEED FOR SPEED™ PAYBACK

4 сезон

9 сезон

Бесстыжие 9 сезон

Все сериалы

все сериалы на PB.wtf

RePack

FAR CRY 5
  

За пределами пустоты / Beyond White Space (Кен Локсманди) [2018, Фантастика, триллер, WEB-DL 1080p] MVO [HDRezka Studio] pb.wtf

За пределами пустоты через торрент pb.wtf

Размер: 4.48 GB | Добавлен: 1 год 9 мес. назад | Торрент скачан:186 раз
Скачать  

12-02-2019 04:16 За пределами пустоты Скачать торрент  

За пределами пустоты / Beyond White Space Год выпуска: 2018
Страна: США, Венгрия
Жанр: Фантастика, триллер
Продолжительность: 01:33:18
Перевод: Профессиональный (многоголосый) | HDRezka Studio
Субтитры: Английские (SDH)

Режиссер: Кен Локсманди

rating

В ролях:

Холт МакКэллани, Сулай Энао, Дэйв Шеридан, Джим Девоти, Джоко Симс, Коди Китчен, Майк Дженовезе, Тиффани Броувер, Айзек С. Синглтон мл., Себастьян А. Джонс

Описание:

2150 год. Космический корабль, команда которого промышляет охотой на существ, обитающих в космосе, получает очередное задание. За эту работу героям обещают заплатить неплохие деньги, но как бы ни старались космические охотники, поймать свою добычу им не удаётся. Их миссия проваливается, а сами они становятся жертвами одной очень опасной банды.

Качество: WEB-DL 1080p
Формат: MKV

Видео: 1920x816 (2.35:1), 23,976 fps, x264 ~6 044 kbps avg, 0.161 bit/pixel
Аудио#1: 48 kHz, AC3 Dolby Digital, 2 (L,R) ch, ~192.00 kbps avg | RUS (HDRezka Studio)
Аудио#2: 48 kHz, E-AC3 Dolby Digital Plus, 3/2 (L,C,R,l,r) + LFE ch, ~640.00 kbps avg | ENG
скриншот  скриншот  скриншот  скриншот  

Общее
Уникальный идентификатор : 161279014168126106582211224153411627196 (0x79553551C1D2FB60DD9B044F51AD28BC)
Полное имя : F:OlLanDGroupBeyond.White.Space.2018.WEB-DL(1080p).OlLanDGroup.mkv
Формат : Matroska
Версия формата : Version 4 / Version 2
Размер файла : 4,48 Гбайт
Продолжительность : 1 ч. 33 м.
Общий поток : 6878 Кбит/сек
Название фильма : Beyond.White.Space.2018 #TorpedoUK#
Дата кодирования : UTC 2019-02-12 01:41:58
Программа кодирования : mkvmerge v29.0.0 ('Like It Or Not') 64-bit
Библиотека кодирования : libebml v1.3.6 + libmatroska v1.4.9

Видео
Идентификатор : 1
Формат : AVC
Формат/Информация : Advanced Video Codec
Профиль формата : High@L4
Параметр CABAC формата : Да
Параметр ReFrames формата : 4 кадра
Идентификатор кодека : V_MPEG4/ISO/AVC
Продолжительность : 1 ч. 33 м.
Битрейт : 6044 Кбит/сек
Ширина : 1920 пикселей
Высота : 816 пикселей
Соотношение сторон : 2,35:1
Режим частоты кадров : Постоянный
Частота кадров : 23,976 (24000/1001) кадра/сек
Цветовое пространство : YUV
Субдискретизация насыщенности : 4:2:0
Битовая глубина : 8 бит
Тип развёртки : Прогрессивная
Бит/(Пиксели*Кадры) : 0.161
Размер потока : 3,94 Гбайт (88%)
Default : Да
Forced : Нет
Цветовой диапазон : Limited
Основные цвета : BT.709
Характеристики трансфера : BT.709
Коэффициенты матрицы : BT.709

Аудио #1
Идентификатор : 2
Формат : AC-3
Формат/Информация : Audio Coding 3
Расширение режима : CM (complete main)
Параметр Endianness формата : Big
Идентификатор кодека : A_AC3
Продолжительность : 1 ч. 33 м.
Вид битрейта : Постоянный
Битрейт : 192 Кбит/сек
Каналы : 2 канала
Расположение каналов : Front: L R
Частота : 48,0 КГц
Частота кадров : 31,250 кадров/сек (1536 spf)
Битовая глубина : 16 бит
Метод сжатия : С потерями
Размер потока : 128 Мбайт (3%)
Заголовок : MVO [HDRezka Studio]
Язык : Russian
Default : Да
Forced : Нет

Аудио #2
Идентификатор : 3
Формат : E-AC-3
Формат/Информация : Enhanced Audio Coding 3
Параметр Endianness формата : Big
Идентификатор кодека : A_EAC3
Продолжительность : 1 ч. 33 м.
Вид битрейта : Постоянный
Битрейт : 640 Кбит/сек
Каналы : 6 каналов
Расположение каналов : Front: L C R, Side: L R, LFE
Частота : 48,0 КГц
Частота кадров : 187,500 кадров/сек (256 spf)
Метод сжатия : С потерями
Размер потока : 427 Мбайт (9%)
Заголовок : [Original]
Язык : English
Default : Нет
Forced : Нет

Текст
Идентификатор : 4
Формат : UTF-8
Идентификатор кодека : S_TEXT/UTF8
Идентификатор кодека/Информация : UTF-8 Plain Text
Продолжительность : 1 ч. 30 м.
Битрейт : 57 бит/сек
Count of elements : 1573
Размер потока : 37,7 Кбайт (0%)
Заголовок : SDH
Язык : English
Default : Нет
Forced : Нет

pb.wtf



Скачать За пределами пустоты через торрент https://i109.fastpic.ru/big/2019/0212/2a/a76575be95ac076234117fec7aae9a2a.jpg Скачать фильм За пределами пустоты через торрент бесплантно в хорошем качестве Описание: 2150 год. Космический корабль, команда которого промышляет охотой на существ, обитающих в космосе, получает очередное задание. За ... 9.8 10 11
Торрент: Зарегистрирован [2019-02-12 04:16] · скачан: 186 раз
Статус: T временная
Размер: 4.48 GB
Как cкачать? Как скачать За пределами пустоты через торрент | qTorrent

% Раздел Тема Автор DL S | L
T Фильмы 2018 [DVDrip, WEB-DLRip, HDrip] (DUB, MVO) [ 1.67 GB ] За пределами пустоты / Beyond White Space [2018 WEB-DLRip-AVC] MVO [HDRezka Studio] bober100 Скачать
1 | 0

28-11-2019 20:33  

Отключить всю рекламу на сайте

12-02-2019 12:17 За пределами пустоты Скачать торрент  

Есть смысл смотреть? Кто глянул отпиштесь о ваших впечатлениях после просмотраpb.wtf



13-02-2019 15:41 За пределами пустоты Скачать торрент  

Risk писал(а):

Есть смысл смотреть? Кто глянул отпиштесь о ваших впечатлениях после просмотра

там по картинке все понятно pb.wtf



    Дорогой пользователь! Огромная просьба, поблагодарите релизера, оцените раздачу и оставьте свои комментарий, если Вы скачали За пределами пустоты через торрент бесплатно! Внесите свою лепту в развитие PiratBit!
    Комментировать посты могут только пользователи прошедшие не сложную регистрацию
    Показать сообщения:    

    За пределами пустоты через торрент
    Скачать бесплатно За пределами пустоты
    За пределами пустоты скачать торрент
    За пределами пустоты смотреть онлайн
    Cкачать фильм За пределами пустоты бесплатно
    За пределами пустоты скачать торрент в хорошем качестве
    За пределами пустоты смотреть онлайн бесплатно в хорошем качестве


    Вы не можете начинать темы
    Вы не можете отвечать на сообщения
    Вы не можете редактировать свои сообщения
    Вы не можете удалять свои сообщения
    Вы не можете голосовать в опросах
    Вы не можете прикреплять файлы к сообщениям
    Вы можете скачивать файлы