Ссылка на приватное зеркало всего за 1$. Внимание количество ограничено!!!

OK

1+1

iTunes

мы

OK

1

WEB-DLRip

Джокер

Пифагор

Ведьмак / The Witcher сериал

iTunes

ПШазам

ОК

Оно 2

iTunes

30
pack

Вам бонус

ВАЖНО

!!Акция!!

Alien_RageХит недели

RePack

Resident Evil 21

ИГРА 18+

pack

RePack

jed

RePack

fifa19

RePack

Assassins Creed: Odyssey

RePack

NEED FOR SPEED™ PAYBACK

4 сезон

9 сезон

Бесстыжие 9 сезон

Все сериалы

все сериалы на PB.wtf

RePack

FAR CRY 5
  

Бесплотный / Discarnate (Марио Сорренти) [2018, ужасы, триллер, BDRip 720p] MVO ["Синема УС"] pb.wtf

Бесплотный через торрент pb.wtf

Раздают: 1 [ 0 KB/s ]
Размер: 4.4 GB | Добавлен: 11 мес. назад | Торрент скачан:88 раз
Скачать  

12-02-2019 08:40 Бесплотный Скачать торрент  

Бесплотный / Discarnate Год выпуска: 2018
Страна: США
Жанр: ужасы, триллер
Продолжительность: 01:28:24
Перевод: Любительский (многоголосый) | "Синема УС"
Субтитры: отсутствуют

Режиссер: Марио Сорренти

rating

В ролях:

Томас Кречман, Надин Веласкес, Бекс Тейлор-Клаус, Крис Кой, Джош Стюарт, Мик Игнис, Кассандра Кларк, Джэйк Вон, Джош Харп, Эштон Амаба

Описание:

Нейробиолог работает над препаратом, расширяющим границы человеческого разума. Однако вскоре эксперименты становятся причиной смертельной сверхъестественной угрозы, нависшей над его командой.

Качество: BDRip 720p
Формат: MKV

Видео: h.264, 6 678 kb/s, 1280x544
Аудио#1: Русский (AC3, 2 ch, 448 Кбит/с)
скриншот  скриншот  скриншот  

Общее
Уникальный идентификатор : 215735108070951631326836430891458542768 (0xA24D120A40BB65208D1943574144BCB0)
Полное имя : E:\торреннты\Discarnate.2018.P.BDRip.72Op_KOSHARA.mkv
Формат : Matroska
Версия формата : Version 2
Размер файла : 4,40 Гбайт
Продолжительность : 1 ч. 28 м.
Режим общего битрейта : Переменный
Общий поток : 7128 Кбит/сек
Дата кодирования : UTC 2019-02-12 02:56:03
Программа кодирования : mkvmerge v8.3.0 ('Over the Horizon') 64bit
Библиотека кодирования : libebml v1.3.1 + libmatroska v1.4.2

Видео
Идентификатор : 1
Формат : AVC
Формат/Информация : Advanced Video Codec
Профиль формата : High@L4.1
Настройки формата : CABAC / 4 Ref Frames
Параметр CABAC формата : Да
Параметр RefFrames формата : 4 кадра
Идентификатор кодека : V_MPEG4/ISO/AVC
Продолжительность : 1 ч. 28 м.
Вид битрейта : Переменный
Битрейт : 6678 Кбит/сек
Максимальный битрейт : 7500 Кбит/сек
Ширина : 1280 пикселей
Высота : 544 пикселя
Соотношение сторон : 2,35:1
Режим частоты кадров : Постоянный
Частота кадров : 23,976 (24000/1001) кадра/сек
Стандарт вещания : Component
Цветовое пространство : YUV
Субдискретизация насыщенности : 4:2:0
Битовая глубина : 8 бит
Тип развёртки : Прогрессивная
Бит/(Пиксели*Кадры) : 0.392
Размер потока : 4,04 Гбайт (92%)
Default : Да
Forced : Нет
Цветовой диапазон : Limited
Основные цвета : BT.709
Характеристики трансфера : BT.709
Коэффициенты матрицы : BT.709

Аудио
Идентификатор : 2
Формат : AC-3
Формат/Информация : Audio Coding 3
Идентификатор кодека : A_AC3
Продолжительность : 1 ч. 28 м.
Вид битрейта : Постоянный
Битрейт : 448 Кбит/сек
Каналы : 2 канала
Расположение каналов : Front: L R
Частота : 48,0 КГц
Частота кадров : 31,250 кадров/сек (1536 SPF)
Битовая глубина : 16 бит
Метод сжатия : С потерями
Размер потока : 283 Мбайт (6%)
ServiceKind/String : Complete Main
Default : Да
Forced : Нет

pb.wtf



Скачать Бесплотный через торрент https://c.radikal.ru/c22/1902/c0/0fa7fdcfb5db.jpg Скачать фильм Бесплотный через торрент бесплантно в хорошем качестве Описание: Нейробиолог работает над препаратом, расширяющим границы человеческого разума. Однако вскоре эксперименты становятся причиной ... 10 10 4
Торрент: Зарегистрирован [2019-02-12 08:40] · скачан: 88 раз
Статус: # сомнительно
Размер: 4.4 GB
Как cкачать? Как скачать Бесплотный через торрент | qTorrent

% Раздел Тема Автор DL S | L
T Фильмы (мультфильмы) cо спонсором показа (Новинки AVI/MKV) [ 1.37 GB ] Бесплотный / Discarnate [2018 HDRip] MVO ["Синема УС"] bober100 Скачать
2 | 0

28-11-2019 20:33  

Отключить всю рекламу на сайте

    Дорогой пользователь! Огромная просьба, поблагодарите релизера, оцените раздачу и оставьте свои комментарий, если Вы скачали Бесплотный через торрент бесплатно! Внесите свою лепту в развитие PiratBit!
    Комментировать посты могут только пользователи прошедшие не сложную регистрацию
    Показать сообщения:    

    Бесплотный через торрент
    Скачать бесплатно Бесплотный
    Бесплотный скачать торрент
    Бесплотный смотреть онлайн
    Cкачать фильм Бесплотный бесплатно
    Бесплотный скачать торрент в хорошем качестве
    Бесплотный смотреть онлайн бесплатно в хорошем качестве


    Вы не можете начинать темы
    Вы не можете отвечать на сообщения
    Вы не можете редактировать свои сообщения
    Вы не можете удалять свои сообщения
    Вы не можете голосовать в опросах
    Вы не можете прикреплять файлы к сообщениям
    Вы можете скачивать файлы