Ссылка на приватное зеркало всего за 1$. Внимание количество ограничено!!!

OK

1+1

iTunes

мы

OK

1

WEB-DLRip

Джокер

Пифагор

Ведьмак / The Witcher сериал

Лицензия

ПШазам

ОК

Оно 2

iTunes

30
pack

Вам бонус

ВАЖНО

!!Акция!!

Alien_RageХит недели

RePack

Resident Evil 21

ИГРА 18+

pack

RePack

jed

!!Акция!!

Alien_Rage

RePack

fifa19

RePack

Assassins Creed: Odyssey

RePack

NEED FOR SPEED™ PAYBACK

4 сезон

9 сезон

Бесстыжие 9 сезон

Все сериалы

все сериалы на PB.wtf

RePack

FAR CRY 5
  

Операция «Шаровая молния» / Entebbe (Жозе Падилья) [2018, триллер, драма, криминал, BDRip 720p] MVO [HDRezka Studio] +DUB [Лицензия R5] pb.wtf

Операция «Шаровая молния» через торрент pb.wtf

Размер: 5.95 GB | Добавлен: 11 мес. назад | Торрент скачан:90 раз
Скачать  

12-02-2019 15:08 Операция «Шаровая молния» Скачать торрент  

Операция «Шаровая молния» / Entebbe
«248 пассажиров. 7 дней. Один план спасения»
Год выпуска: 2018
Страна: Великобритания, США
Жанр: триллер, драма, криминал
Продолжительность: 01:47:00
Перевод:

#1: Дублированный | Лицензия | R5 НД Плэй
#2: Профессиональный многоголосый | HDRezka Studio

Субтитры: Английские (Full, SDH)

Режиссер: Жозе Падилья

rating

В ролях:

Розамунд Пайк (Brigitte Kuhlmann), Эдди Марсан (Shimon Peres), Даниэль Брюль (Wilfried Böse), Нонсо Анози (Idi Amin), Бен Шнетцер (Zeev Hirsch), Камиль Лемешевский (Greek Pilot), Хуан Пабло Раба (Juan Pablo), Марк Иванир (General Motta Gur), Дени Меноше (Jacques Le Moine), Бронтис Ходоровски (Captain Bacos), Винсент Риотта (Dan Shomron), Анхель Бунани (Yonatan (Yoni), Netanyahu)
Описание:

В 1976 году самолет, следовавший из Тель-Авива в Париж, был захвачен террористами и совершил вынужденную посадку в аэропорту Энтеббе в Уганде с целью обмена заложников на осужденных преступников. Дипломатического решения вопроса за 7 дней найти не удалось. Тогда был разработан весьма изобретательный и крайне смелый план спасения...

Качество: BDRip 720p
Формат: MKV

Видео: MPEG-4 AVC, 1280x536, 5806 Kbit/s, 23.976 fps
Аудио#1: 48 kHz, AC3, 5.1, 448 Kbps | Дублированный| RUS |
Аудио#2: 48 kHz, AC3, 2.0, 192 Kbps | HDRezka Studio | RUS |
Аудио#3: 48 kHz, DTS, 5.1, 1509 Kbps | Оригинал | ENG |
скриншот  скриншот  скриншот  скриншот  скриншот  

Общее
Уникальный идентификатор : 312420192040486714323397901515762184142 (0xEB09F0B809C0576DC8CD8C190A042FCE)
Полное имя : Entebbe.2018.720p.BluRay.DD5.1.x264.Rus.Eng.mkv
Формат : Matroska
Версия формата : Version 4 / Version 2
Размер файла : 5,95 Гбайт
Продолжительность : 1 ч. 47 м.
Общий поток : 7957 Кбит/сек
Название фильма : Операция «Шаровая молния» (2018)
Дата кодирования : UTC 2019-02-12 12:22:48
Программа кодирования : mkvmerge v27.0.0 ('Metropolis') 64-bit
Библиотека кодирования : libebml v1.3.6 + libmatroska v1.4.9
Обложка : Yes
Attachments : cover.jpg

Видео
Идентификатор : 1
Формат : AVC
Формат/Информация : Advanced Video Codec
Профиль формата : High@L4.1
Настройки формата : CABAC / 12 Ref Frames
Параметр CABAC формата : Да
Параметр RefFrames формата : 12 кадров
Идентификатор кодека : V_MPEG4/ISO/AVC
Продолжительность : 1 ч. 47 м.
Битрейт : 5806 Кбит/сек
Ширина : 1280 пикселей
Высота : 536 пикселей
Соотношение сторон : 2,40:1
Режим частоты кадров : Постоянный
Частота кадров : 23,976 (24000/1001) кадра/сек
Цветовое пространство : YUV
Субдискретизация насыщенности : 4:2:0
Битовая глубина : 8 бит
Тип развёртки : Прогрессивная
Бит/(Пиксели*Кадры) : 0.353
Размер потока : 4,34 Гбайт (73%)
Заголовок : DON
Библиотека кодирования : x264 core 155 r2867+82 a249126 t_mod_Custom_2 [8-bit@all X86_64]
Настройки программы : cabac=1 / ref=12 / deblock=1:-3:-3 / analyse=0x3:0x133 / me=umh / subme=11 / psy=1 / fade_compensate=0.00 / psy_rd=1.05:0.00 / mixed_ref=1 / me_range=32 / chroma_me=1 / trellis=2 / 8x8dct=1 / cqm=0 / deadzone=21,11 / fast_pskip=0 / chroma_qp_offset=-2 / threads=12 / lookahead_threads=3 / sliced_threads=0 / nr=0 / decimate=0 / interlaced=0 / bluray_compat=0 / constrained_intra=0 / fgo=0 / bframes=11 / b_pyramid=2 / b_adapt=2 / b_bias=0 / direct=3 / weightb=1 / open_gop=0 / weightp=2 / keyint=250 / keyint_min=23 / scenecut=40 / intra_refresh=0 / rc_lookahead=60 / rc=crf / mbtree=0 / crf=16.3000 / qcomp=0.65 / qpmin=0:0:0 / qpmax=69:69:69 / qpstep=4 / vbv_maxrate=62500 / vbv_bufsize=78125 / crf_max=0.0 / nal_hrd=none / filler=0 / ip_ratio=1.30 / pb_ratio=1.20 / aq=3:0.80 / aq-sensitivity=10.00 / aq-factor=1.00:1.00:1.00 / aq2=0 / aq3=0 / zones=25,310,crf=13.3/46680,47074,crf=15.3/78985,79033,crf=14.3/79337,79462,crf=15.3/79820,79871,crf=14.3/108218,108411,crf=14.3/126430,127002,crf=13/130654,131171,crf=15.3
Язык : English
Default : Да
Forced : Нет
Цветовой диапазон : Limited
Коэффициенты матрицы : BT.709

Аудио #1
Идентификатор : 2
Формат : AC-3
Формат/Информация : Audio Coding 3
Идентификатор кодека : A_AC3
Продолжительность : 1 ч. 46 м.
Вид битрейта : Постоянный
Битрейт : 448 Кбит/сек
Каналы : 6 каналов
Расположение каналов : Front: L C R, Side: L R, LFE
Частота : 48,0 КГц
Частота кадров : 31,250 кадров/сек (1536 SPF)
Битовая глубина : 16 бит
Метод сжатия : С потерями
Размер потока : 342 Мбайт (6%)
Заголовок : R5 НД Плэй
Язык : Russian
Default : Да
Forced : Нет

Аудио #2
Идентификатор : 3
Формат : AC-3
Формат/Информация : Audio Coding 3
Идентификатор кодека : A_AC3
Продолжительность : 1 ч. 46 м.
Вид битрейта : Постоянный
Битрейт : 192 Кбит/сек
Каналы : 2 канала
Расположение каналов : Front: L R
Частота : 48,0 КГц
Частота кадров : 31,250 кадров/сек (1536 SPF)
Битовая глубина : 16 бит
Метод сжатия : С потерями
Размер потока : 147 Мбайт (2%)
Заголовок : HDRezka Studio
Язык : Russian
Default : Нет
Forced : Нет

Аудио #3
Идентификатор : 4
Формат : DTS
Формат/Информация : Digital Theater Systems
Идентификатор кодека : A_DTS
Продолжительность : 1 ч. 47 м.
Вид битрейта : Постоянный
Битрейт : 1509 Кбит/сек
Каналы : 6 каналов
Расположение каналов : Front: L C R, Side: L R, LFE
Частота : 48,0 КГц
Частота кадров : 93,750 кадра/сек (512 SPF)
Битовая глубина : 24 бит
Метод сжатия : С потерями
Размер потока : 1,13 Гбайт (19%)
Язык : English
Default : Нет
Forced : Нет

Текст #1
Идентификатор : 5
Формат : UTF-8
Идентификатор кодека : S_TEXT/UTF8
Идентификатор кодека/Информация : UTF-8 Plain Text
Продолжительность : 1 ч. 32 м.
Битрейт : 48 бит/сек
ElementCount : 971
Размер потока : 32,7 Кбайт (0%)
Заголовок : Full
Язык : English
Default : Нет
Forced : Нет

Текст #2
Идентификатор : 6
Формат : UTF-8
Идентификатор кодека : S_TEXT/UTF8
Идентификатор кодека/Информация : UTF-8 Plain Text
Продолжительность : 1 ч. 38 м.
Битрейт : 50 бит/сек
ElementCount : 1088
Размер потока : 36,5 Кбайт (0%)
Заголовок : SDH
Язык : English
Default : Нет
Forced : Нет

Меню
00:00:00.000 : en:00:00:00.000
00:02:32.569 : en:00:02:32.569
00:06:17.669 : en:00:06:17.669
00:12:00.261 : en:00:12:00.261
00:19:00.431 : en:00:19:00.431
00:24:11.575 : en:00:24:11.575
00:28:10.606 : en:00:28:10.606
00:32:43.420 : en:00:32:43.420
00:38:10.413 : en:00:38:10.413
00:44:32.545 : en:00:44:32.545
00:49:31.468 : en:00:49:31.468
00:53:06.016 : en:00:53:06.016
00:58:22.708 : en:00:58:22.708
01:04:04.549 : en:01:04:04.549
01:08:07.625 : en:01:08:07.625
01:16:13.986 : en:01:16:13.986
01:21:11.617 : en:01:21:11.617
01:28:57.999 : en:01:28:57.999
01:37:31.846 : en:01:37:31.846
01:39:09.902 : en:01:39:09.902

pb.wtf



Скачать Операция «Шаровая молния» через торрент http://pic1.kartinco.top/images/11/spzr6.jpg Скачать фильм Операция «Шаровая молния» через торрент бесплантно в хорошем качестве Описание: В 1976 году самолет, следовавший из Тель-Авива в Париж, был захвачен террористами и совершил вынужденную посадку в аэропорту ... 7.8 10 6
Info! Золотая раздача, скачанное не засчитывается.
Торрент: Зарегистрирован [2019-02-12 15:08] · скачан: 90 раз
Статус: √ проверено
Размер: 5.95 GB
Как cкачать? Как скачать Операция «Шаровая молния» через торрент | qTorrent

% Раздел Тема Автор DL S | L
Фильмы [HD 720p, 1080p] (Хороший звук DUB, MVO) [ 12.76 GB ] Операция «Шаровая молния» / Entebbe [2018 BDRip 1080p] MVO [HDRezka Studio] +DUB [ R5] bober100 Скачать
2 | 0
Ultra HD (UHD: 2K, 4K, 8K) — видео сверхвысокой чёткости [ 17.17 GB ] Операция «Шаровая молния» / Entebbe [2018 UHD WEBRip 2160p] MVO [HDRezka Studio] + bober100 Скачать
1 | 0
Фильмы (HD 720p, 1080p) (48-60 fps) [ 13.35 GB ] Операция «Шаровая молния» / Entebbe [2018 BDRip 1080p 60 fps] bober100 Скачать
2 | 0
Фильмы 2018 [DVDrip, WEB-DLRip, HDrip] (DUB, MVO) [ 1.46 GB ] Операция «Шаровая молния» / Entebbe [2018 BDRip] - [] Twi7ter Скачать
2 | 0
Фильмы 2018 [DVDrip, WEB-DLRip, HDrip] (DUB, MVO) [ 1.68 GB ] Операция «Шаровая молния» / Entebbe [2018 BDRip-AVC] MVO [HDRezka Studio] + bober100 Скачать
3 | 0
Фильмы 2018 [DVDrip, WEB-DLRip, HDrip] (DUB, MVO) [ 2.05 GB ] Операция «Шаровая молния» / Entebbe [2018 HDRip] bober100 Скачать
1 | 0
Фильмы 2018 [DVDrip, WEB-DLRip, HDrip] (DUB, MVO) [ 1.41 GB ] Операция «Шаровая молния» / Entebbe [2018 BDRip] bober100 Скачать
1 | 0

28-11-2019 20:33  

Отключить всю рекламу на сайте

12-02-2019 16:38 Операция «Шаровая молния» Скачать торрент  

судя по фильму *возможно, и в действительности так и было) - не "смелый и изобретательный план", а тупость и слюнтявость "террористов". Босё только что слюни сидя на полу не пускал весь фильм.
а так - что-то евреи последние годы наснимали кучу фильмов про "умных, красивых и смелых", "самую лучшу разведку" и т.п.pb.wtf



12-02-2019 18:34 Операция «Шаровая молния» Скачать торрент  

sergunka писал(а):

судя по фильму *возможно, и в действительности так и было) - не "смелый и изобретательный план", а тупость и слюнтявость "террористов". Босё только что слюни сидя на полу не пускал весь фильм.
а так - что-то евреи последние годы наснимали кучу фильмов про "умных, красивых и смелых", "самую лучшу разведку" и т.п.

так у голивуда каждый третий фильм такой. особенно вписывается совсем свежий фильм про спасение президента Россииpb.wtf



    Дорогой пользователь! Огромная просьба, поблагодарите релизера, оцените раздачу и оставьте свои комментарий, если Вы скачали Операция «Шаровая молния» через торрент бесплатно! Внесите свою лепту в развитие PiratBit!
    Комментировать посты могут только пользователи прошедшие не сложную регистрацию
    Показать сообщения:    

    Операция «Шаровая молния» через торрент
    Скачать бесплатно Операция «Шаровая молния»
    Операция «Шаровая молния» скачать торрент
    Операция «Шаровая молния» смотреть онлайн
    Cкачать фильм Операция «Шаровая молния» бесплатно
    Операция «Шаровая молния» скачать торрент в хорошем качестве
    Операция «Шаровая молния» смотреть онлайн бесплатно в хорошем качестве


    Вы не можете начинать темы
    Вы не можете отвечать на сообщения
    Вы не можете редактировать свои сообщения
    Вы не можете удалять свои сообщения
    Вы не можете голосовать в опросах
    Вы не можете прикреплять файлы к сообщениям
    Вы можете скачивать файлы