Ссылка на приватное зеркало нашего сайта всего за 1$. Внимание количество ограничено!!!

2 сезон

iTunes

iTunes

1

iTunes

iTunes

iTunes

WEBRip

iTunes

30
pack

Новость дня

ВАЖНО

!!Акция!!

Alien_RageХит недели

RePack

Horizon Zero Dawn

ИГРА 18+

pack

RePack

jed

!!Акция!!

Alien_Rage

RePack

fifa19

RePack

Assassins Creed: Odyssey

RePack

NEED FOR SPEED™ PAYBACK

4 сезон

9 сезон

Бесстыжие 9 сезон

Все сериалы

все сериалы на PB.wtf

RePack

FAR CRY 5
  

Можно только представить / I Can Only Imagine (Эндрю Эрвин, Джон Эрвин) [2018, Драма, семейный, BDRip 720p] DUB [Лицензия R5] pb.wtf

Можно только представить через торрент pb.wtf

Размер: 5.27 GB | Добавлен: 1 год 7 мес. назад | Торрент скачан:62 раза
Скачать  

12-02-2019 15:14 Можно только представить Скачать торрент  

Можно только представить / I Can Only Imagine
Год выпуска: 2018
Страна: США
Жанр: Драма, семейный
Продолжительность: 01:50:20
Перевод: Дублированный | Лицензия R5
Субтитры: Английские

Режиссер: Эндрю Эрвин, Джон Эрвин

rating

В ролях:

Деннис Куэйд, Дж. Майкл Финли, Броди Роуз, Трэйси Д. Эдкинс, Эрик Ашлок, Джина Д. Брюэр, О'Шей Брукс, Джейсон Бёрки, Тэген Бернс

Описание:

История рождения одноименной песни группы MercyMe. Лидер команды посвятил эту песню о вере, любви и прощении своему отцу, не подозревая, что скоро она облетит весь мир, станет платиновым хитом, а главное — подарит надежду миллионам людей.

Качество: BDRip 720p
Формат: MKV

Видео: MPEG-4 AVC, 1280x538, 4880 Кbit/s, 23.976 fps
Аудио#1: 48 kHz, AC3, 5.1, 448 Kbps | Дублированный | RUS |
Аудио#2: 48 kHz, DTS, 5.1, 1510 Kbps | Оригинал | ENG |
скриншот   скриншот   скриншот   скриншот  скриншот  

General
Unique ID : 50424705942805893289270720569324660722 (0x25EF71F2CF087943DE7C8A192900E7F2)
Complete name : D:Video111I.Can.Only.Imagine.2018.Lic.BDRip.720p.seleZen.mkv
Format : Matroska
Format version : Version 4
File size : 5.27 GiB
Duration : 1 h 50 min
Overall bit rate : 6 839 kb/s
Movie name : I Can Only Imagine 2018 from селезень
Encoded date : UTC 2019-02-12 13:51:15
Writing application : mkvmerge v29.0.0 ('Like It Or Not') 64-bit
Writing library : libebml v1.3.6 + libmatroska v1.4.9

Video
ID : 1
Format : AVC
Format/Info : Advanced Video Codec
Format profile : High@L4.1
Format settings : CABAC / 9 Ref Frames
Format settings, CABAC : Yes
Format settings, ReFrames : 9 frames
Codec ID : V_MPEG4/ISO/AVC
Duration : 1 h 50 min
Bit rate : 4 880 kb/s
Width : 1 280 pixels
Height : 538 pixels
Display aspect ratio : 2.40:1
Frame rate mode : Constant
Frame rate : 23.976 (24000/1001) FPS
Color space : YUV
Chroma subsampling : 4:2:0
Bit depth : 8 bits
Scan type : Progressive
Bits/(Pixel*Frame) : 0.296
Stream size : 3.76 GiB (71%)
Writing library : x264 core 155 r2867+74 66b5600 t_mod_Custom_2 [8-bit@all X86_64]
Encoding settings : cabac=1 / ref=9 / deblock=1:-3:-3 / analyse=0x3:0x113 / me=umh / subme=10 / psy=1 / fade_compensate=0.00 / psy_rd=0.90:0.10 / mixed_ref=1 / me_range=32 / chroma_me=1 / trellis=2 / 8x8dct=1 / cqm=0 / deadzone=21,11 / fast_pskip=0 / chroma_qp_offset=-2 / threads=17 / lookahead_threads=2 / sliced_threads=0 / nr=0 / decimate=1 / interlaced=0 / bluray_compat=0 / constrained_intra=0 / fgo=0 / bframes=8 / b_pyramid=2 / b_adapt=2 / b_bias=0 / direct=3 / weightb=1 / open_gop=0 / weightp=2 / keyint=250 / keyint_min=23 / scenecut=40 / intra_refresh=0 / rc_lookahead=40 / rc=crf / mbtree=0 / crf=19.0000 / qcomp=0.70 / qpmin=0:0:0 / qpmax=69:69:69 / qpstep=4 / vbv_maxrate=30000 / vbv_bufsize=30000 / crf_max=0.0 / nal_hrd=none / filler=0 / ip_ratio=1.40 / pb_ratio=1.30 / aq=3:0.90 / aq-sensitivity=10.00 / aq-factor=1.00:1.00:1.00 / aq2=0 / aq3=2:[0.50:0.50]:[0.50:0.50]:[0.50:0.50]:[0.50:0.50] / aq3-sensitivity=10.00 / aq3-factor=[1.00:1.00]:[1.00:1.00]:[1.00:1.00] / aq3-boundary=192:64:24
Language : English
Default : Yes
Forced : No
Color range : Limited
Matrix coefficients : BT.709

Audio #1
ID : 2
Format : AC-3
Format/Info : Audio Coding 3
Commercial name : Dolby Digital
Codec ID : A_AC3
Duration : 1 h 50 min
Bit rate mode : Constant
Bit rate : 448 kb/s
Channel(s) : 6 channels
Channel layout : L R C LFE Ls Rs
Sampling rate : 48.0 kHz
Frame rate : 31.250 FPS (1536 SPF)
Bit depth : 16 bits
Compression mode : Lossy
Stream size : 353 MiB (7%)
Title : Dub [License] - R5 Парадайз
Language : Russian
Service kind : Complete Main
Default : Yes
Forced : Yes

Audio #2
ID : 3
Format : DTS
Format/Info : Digital Theater Systems
Codec ID : A_DTS
Duration : 1 h 50 min
Bit rate mode : Constant
Bit rate : 1 509 kb/s
Channel(s) : 6 channels
Channel layout : C L R Ls Rs LFE
Sampling rate : 48.0 kHz
Frame rate : 93.750 FPS (512 SPF)
Bit depth : 24 bits
Compression mode : Lossy
Stream size : 1.16 GiB (22%)
Title : Original
Language : English
Default : No
Forced : No

Text
ID : 4
Format : UTF-8
Codec ID : S_TEXT/UTF8
Codec ID/Info : UTF-8 Plain Text
Duration : 1 h 44 min
Bit rate : 52 b/s
Count of elements : 1226
Stream size : 40.1 KiB (0%)
Title : Full
Language : English
Default : No
Forced : No

Menu
00:00:00.000 : en:00:00:00.000
00:08:27.841 : en:00:08:27.841
00:14:29.869 : en:00:14:29.869
00:21:22.281 : en:00:21:22.281
00:28:10.689 : en:00:28:10.689
00:36:22.180 : en:00:36:22.180
00:44:25.663 : en:00:44:25.663
00:52:21.138 : en:00:52:21.138
01:01:10.667 : en:01:01:10.667
01:09:12.148 : en:01:09:12.148
01:13:46.422 : en:01:13:46.422
01:22:25.941 : en:01:22:25.941
01:26:10.165 : en:01:26:10.165
01:34:16.651 : en:01:34:16.651
01:41:24.078 : en:01:41:24.078
01:45:43.337 : en:01:45:43.337

pb.wtf



Скачать Можно только представить через торрент http://pic1.kartinco.top/images/11/zoltm.jpg Скачать фильм Можно только представить через торрент бесплантно в хорошем качестве Описание: История рождения одноименной песни группы MercyMe. Лидер команды посвятил эту песню о вере, любви и прощении своему отцу, не ... 10 10 3
Торрент: Зарегистрирован [2019-02-12 15:14] · скачан: 62 раз
Статус: √ проверено
Размер: 5.27 GB
Как cкачать? Как скачать Можно только представить через торрент | qTorrent

% Раздел Тема Автор DL S | L
Фильмы 2018 [DVDrip, WEB-DLRip, HDrip] (DUB, MVO) [ 746 MB ] Можно только представить / I Can Only Imagine [2018 BDRip] DUB [ R5] bober100 Скачать
1 | 0
Фильмы 2018 [DVDrip, WEB-DLRip, HDrip] (DUB, MVO) [ 1.46 GB ] Можно только представить / I Can Only Imagine [2018 BDRip] DUB [ R5] bober100 Скачать
1 | 0
Фильмы (Blu-ray, BD-Remux, HDDVD) [ 20.52 GB ] Можно только представить / I Can Only Imagine [2018 BD Remux 1080p] DUB [ R5] bober100 Скачать
1 | 0
Фильмы [HD 720p, 1080p] (Хороший звук DUB, MVO) [ 11.17 GB ] Можно только представить / I Can Only Imagine [2018 BDRip 1080p] DUB [ R5] bober100 Скачать
1 | 0
Фильмы 2018 [DVDrip, WEB-DLRip, HDrip] (DUB, MVO) [ 1.46 GB ] Можно только представить / I Can Only Imagine [2018 BDRip] - [] Twi7ter Скачать
2 | 0
Фильмы [HD 720p, 1080p] (Хороший звук DUB, MVO) [ 4.53 GB ] Можно только представить / I Can Only Imagine [2018 BDRip 1080p HEVC ] Мичман37 Скачать
1 | 0

28-11-2019 20:33  

Отключить всю рекламу на сайте

    Дорогой пользователь! Огромная просьба, поблагодарите релизера, оцените раздачу и оставьте свои комментарий, если Вы скачали Можно только представить через торрент бесплатно! Внесите свою лепту в развитие PiratBit!
    Комментировать посты могут только пользователи прошедшие не сложную регистрацию
    Показать сообщения:    

    Можно только представить через торрент
    Скачать бесплатно Можно только представить
    Можно только представить скачать торрент
    Можно только представить смотреть онлайн
    Cкачать фильм Можно только представить бесплатно
    Можно только представить скачать торрент в хорошем качестве
    Можно только представить смотреть онлайн бесплатно в хорошем качестве


    Вы не можете начинать темы
    Вы не можете отвечать на сообщения
    Вы не можете редактировать свои сообщения
    Вы не можете удалять свои сообщения
    Вы не можете голосовать в опросах
    Вы не можете прикреплять файлы к сообщениям
    Вы можете скачивать файлы