новый адрес
Ссылка на приватное зеркало всего за 1$. Внимание количество ограничено!!!

iTunes

1+1

iTunes

мы

WEB-DL

1

iTunes

Чернобыль

iTunes

Ральф против интернета

Лицензия

ПШазам

Лицензия

Оно 2

Лицензия

30
pack

Вам бонус

ВАЖНО

!!Акция!!

Alien_RageХит недели

RePack

Resident Evil 21

ИГРА 18+

pack

RePack

jed

!!Акция!!

Alien_Rage

RePack

fifa19

RePack

Assassins Creed: Odyssey

RePack

NEED FOR SPEED™ PAYBACK

3 сезон

9 сезон

Бесстыжие 9 сезон

Все сериалы

все сериалы на PB.wtf

RePack

FAR CRY 5
Ребята, катастрофически не хватает 1900р. для оплаты серверов за Октябрь (всвязи с блокировками трафик упал в 3 раза), 1-2р., выручайте.
  

Оверлорд / Overlord (Джулиус Эйвери) [2018, ужасы, фантастика, боевик, HDRip] DUB [Лицензия] pb.wtf

Оверлорд через торрент pb.wtf

Раздают: 3 [ 0 KB/s ]
Размер: 748 MB | Добавлен: 9 мес. назад | Торрент скачан:235 раз
Скачать  

12-02-2019 15:30 Оверлорд Скачать торрент  

Оверлорд / Overlord

Год выпуска: 2018
Страна: США, Канада
Жанр: ужасы, фантастика, боевик, военный
Продолжительность: 01:49:44
Перевод: Дублированный | Лицензия (Blu-ray 4k EUR)
Субтитры: Русские (форсированные) отдельно
Режиссер: Джулиус Эйвери
В ролях:

Джован Адепо (Boyce), Уайатт Рассел (Ford), Матильда Олливье (Chloe), Йохан Филип Асбек (Wafner), Джон Магаро (Tibbet), Йен де Кестекер (Chase), Джейкоб Андерсон (Dawson), Доминик Эпплуайт (Rosenfeld), Джанни Тофер (Paul), Джозеф Куинн (Grunauer), Боким Вудбайн (Rensin), Эрих Редман (Dr. Schmidt)
Описание:
Накануне высадки союзников в Нормандии отряд американских десантников проникают в оккупированный немцами посёлок, чтобы разрушить их радиомачту. Лазутчикам предстоит столкнуться не только с военными, но и с жуткими последствиями нацистских экспериментов.
Рейтинг:

MPAA: R - Лицам до 17 лет обязательно присутствие взрослого
Качество: HDRip
Формат: AVI
Видео: 688x288 (2.39:1), 23.976 fps, XviD build 73, 778 kbps avg
Аудио: 48 kHz, MPEG Layer 3, 2 ch, 128.00 kbps avg

General
Complete name : G:\Overlord.2018.HDRip.MegaPeer\Overlord.2018.HDRip.MegaPeer.avi
Format : AVI
Format/Info : Audio Video Interleave
File size : 748 MiB
Duration : 1 h 49 min
Overall bit rate : 953 kb/s

Video
ID : 0
Format : MPEG-4 Visual
Format profile : Advanced Simple@L5
Format settings, BVOP : 1
Format settings, QPel : No
Format settings, GMC : No warppoints
Format settings, Matrix : Custom
Codec ID : XVID
Codec ID/Hint : XviD
Duration : 1 h 49 min
Bit rate : 778 kb/s
Width : 688 pixels
Height : 288 pixels
Display aspect ratio : 2.40:1
Frame rate : 23.976 (24000/1001) FPS
Color space : YUV
Chroma subsampling : 4:2:0
Bit depth : 8 bits
Scan type : Progressive
Compression mode : Lossy
Bits/(Pixel*Frame) : 0.164
Stream size : 611 MiB (82%)
Writing library : XviD 73

Audio
ID : 1
Format : MPEG Audio
Format version : Version 1
Format profile : Layer 3
Codec ID : 55
Codec ID/Hint : MP3
Duration : 1 h 49 min
Bit rate mode : Constant
Bit rate : 128 kb/s
Channel(s) : 2 channels
Sampling rate : 48.0 kHz
Compression mode : Lossy
Stream size : 100 MiB (13%)
Alignment : Aligned on interleaves
Writing library : LAME3.99r
Encoding settings : -m s -V 4 -q 2 -lowpass 17 -b 128
скриншот   скриншот   скриншот   скриншот   скриншот   скриншот  
pb.wtf



Скачать Оверлорд через торрент https://a.radikal.ru/a24/1902/1f/d7626e4b58bb.png Скачать фильм Оверлорд через торрент бесплантно в хорошем качестве Описание: Накануне высадки союзников в Нормандии отряд американских десантников проникают в оккупированный немцами посёлок, чтобы разрушить ... 10 10 8
Торрент: Зарегистрирован [2019-02-12 15:30] · скачан: 235 раз
Статус: √ проверено
Размер: 748 MB
Как cкачать? Как скачать Оверлорд через торрент | qTorrent

% Раздел Тема Автор DL S | L
Фильмы [HD 720p, 1080p] (Хороший звук DUB, MVO) [ 4.28 GB ] Оверлорд / Overlord [2018 военный BDRip 720p Dub MVO AVO] от ExKinoRay morfyi Скачать
3 | 0
Ultra HD (UHD: 2K, 4K, 8K) — видео сверхвысокой чёткости [ 27.6 GB ] Оверлорд / Overlord [2018 UHD BDRip 2160p] DUB [] sheker187 Скачать
1 | 0
Фильмы 2018 [DVDrip, WEB-DLRip, HDrip] (DUB, MVO) [ 1.46 GB ] Оверлорд / Overlord [2018 BDRip] - [] Twi7ter Скачать
13 | 0
Фильмы 2018 [DVDrip, WEB-DLRip, HDrip] (DUB, MVO) [ 2.18 GB ] Оверлорд / Overlord [2018 BDRip] - [] Twi7ter Скачать
10 | 0
Фильмы [HD 720p, 1080p] (Хороший звук DUB, MVO) [ 2.73 GB ] Оверлорд / Overlord [2018 военный BDRip 1080p HEVC ()] Мичман37 Скачать
4 | 0
Фильмы 2018 [DVDrip, WEB-DLRip, HDrip] (DUB, MVO) [ 1.91 GB ] Оверлорд / Overlord [2018 BDRip-AVC] MVO [HDrezka Studio] +DUB [] bober100 Скачать
3 | 0
Фильмы [HD 720p, 1080p] (Хороший звук DUB, MVO) [ 5.28 GB ] Оверлорд / Overlord [2018 BDRip 720p] DUB [] sheker187 Скачать
36 | 0

28-11-2019 20:33  

Отключить всю рекламу на сайте

    Дорогой пользователь! Огромная просьба, поблагодарите релизера, оцените раздачу и оставьте свои комментарий, если Вы скачали Оверлорд через торрент бесплатно! Внесите свою лепту в развитие PiratBit!
    Комментировать посты могут только пользователи прошедшие не сложную регистрацию
    Показать сообщения:    

    Оверлорд через торрент
    Скачать бесплатно Оверлорд
    Оверлорд скачать торрент
    Оверлорд смотреть онлайн
    Cкачать фильм Оверлорд бесплатно
    Оверлорд скачать торрент в хорошем качестве
    Оверлорд смотреть онлайн бесплатно в хорошем качестве


    Вы не можете начинать темы
    Вы не можете отвечать на сообщения
    Вы не можете редактировать свои сообщения
    Вы не можете удалять свои сообщения
    Вы не можете голосовать в опросах
    Вы не можете прикреплять файлы к сообщениям
    Вы можете скачивать файлы