Ссылка на приватное зеркало всего за 1$. Внимание количество ограничено!!!

OK

1+1

iTunes

мы

OK

1

WEB-DLRip

Джокер

Пифагор

Ведьмак / The Witcher сериал

Лицензия

ПШазам

ОК

Оно 2

iTunes

30
pack

Вам бонус

ВАЖНО

!!Акция!!

Alien_RageХит недели

RePack

Resident Evil 21

ИГРА 18+

pack

RePack

jed

!!Акция!!

Alien_Rage

RePack

fifa19

RePack

Assassins Creed: Odyssey

RePack

NEED FOR SPEED™ PAYBACK

4 сезон

9 сезон

Бесстыжие 9 сезон

Все сериалы

все сериалы на PB.wtf

RePack

FAR CRY 5
  

Оверлорд / Overlord (Джулиус Эйвери) [2018, ужасы, фантастика, боевик, UHD BDRip 2160p] DUB (rus, ukr) [Лицензия] pb.wtf

Оверлорд через торрент pb.wtf

Размер: 27.6 GB | Добавлен: 11 мес. назад | Торрент скачан:135 раз
Скачать  

12-02-2019 15:50 Оверлорд Скачать торрент  

Оверлорд / Overlord

Год выпуска: 2018
Страна: США, Канада
Жанр: ужасы, фантастика, боевик, военный
Продолжительность: 01:49:44
Перевод: Дублированный [Лицензия]
Субтитры: Русские (Forced, full), английские (SDH)
Режиссер: Джулиус Эйвери
В ролях:

Джован Адепо (Boyce), Уайатт Рассел (Ford), Матильда Олливье (Chloe), Йохан Филип Асбек (Wafner), Джон Магаро (Tibbet), Йен де Кестекер (Chase), Джейкоб Андерсон (Dawson), Доминик Эпплуайт (Rosenfeld), Джанни Тофер (Paul), Джозеф Куинн (Grunauer), Боким Вудбайн (Rensin), Эрих Редман (Dr. Schmidt)
Описание:
Накануне высадки союзников в Нормандии отряд американских десантников проникают в оккупированный немцами посёлок, чтобы разрушить их радиомачту. Лазутчикам предстоит столкнуться не только с военными, но и с жуткими последствиями нацистских экспериментов.
Рейтинг:

MPAA: R - Лицам до 17 лет обязательно присутствие взрослого
Качество: UHD BDRip 2160p
Формат: MKV
Видео: HEVC HDR, 29700 Кбит/с, 3840x1600, 23.976 кадр/с, 10 бит
Аудио 1: AC3, 6 ch, 640 Kbps - Русский
Аудио 2: AC3, 2 ch, 192 Kbps - Украинский
Аудио 3: TrueHD Atmos, 6 ch, 4723 Kbps | Английский
Аудио 4: AC3, 6 ch, 640 Kbps - Английский
Навигация по главам: Есть

Общее
Уникальный идентификатор : 203089943722656702122543737350246434190 (0x98C9B34D8A9B16A7908C4B321CF5058E)
Полное имя : D:\Мои раздачи\Передел\Новая папка\Overlord.2018.2160p.BDRip.x265.HDR.10bit.Master5.mkv
Формат : Matroska
Версия формата : Version 4 / Version 2
Размер файла : 27,6 Гбайт
Продолжительность : 1 ч. 49 м.
Режим общего битрейта : Переменный
Общий поток : 36,0 Мбит/сек
Название фильма : Overlord.2018.2160p.BDRip.x265.HDR.10bit.Master5
Дата кодирования : UTC 2019-02-13 08:47:08
Программа кодирования : mkvmerge v7.9.0 ('Birds') 64bit
Библиотека кодирования : libebml v1.3.1 + libmatroska v1.4.2
Обложка : Yes
Attachments : small_cover.jpg / small_cover_land.jpg / cover.jpg / cover_land.jpg

Видео
Идентификатор : 1
Формат : HEVC
Формат/Информация : High Efficiency Video Coding
Коммерческое название : HDR10
Профиль формата : Main 10@L5.1@High
Идентификатор кодека : V_MPEGH/ISO/HEVC
Продолжительность : 1 ч. 49 м.
Битрейт : 29,7 Мбит/сек
Ширина : 3840 пикселей
Высота : 1600 пикселей
Соотношение сторон : 2,40:1
Режим частоты кадров : Постоянный
Частота кадров : 23,976 (24000/1001) кадра/сек
Цветовое пространство : YUV
Субдискретизация насыщенности : 4:2:0 (Type 2)
Битовая глубина : 10 бит
Бит/(Пиксели*Кадры) : 0.202
Размер потока : 22,8 Гбайт (83%)
Заголовок : Overlord.2018.2160p.BDRip.x265.HDR.10bit.Master5
Библиотека кодирования : x265 3.0_RC+13-ae085e5cd8a2:[Windows][GCC 8.2.1][64 bit] 10bit
Настройки программы : cpuid=1111039 / frame-threads=16 / numa-pools=24,24,24,24 / wpp / no-pmode / no-pme / no-psnr / no-ssim / log-level=2 / input-csp=1 / input-res=3840x1600 / interlace=0 / total-frames=0 / level-idc=51 / high-tier=1 / uhd-bd=0 / ref=3 / no-allow-non-conformance / repeat-headers / annexb / aud / hrd / info / hash=0 / no-temporal-layers / no-open-gop / min-keyint=1 / keyint=24 / gop-lookahead=0 / bframes=4 / b-adapt=2 / b-pyramid / bframe-bias=0 / rc-lookahead=25 / lookahead-slices=4 / scenecut=40 / radl=0 / no-splice / no-intra-refresh / ctu=64 / min-cu-size=8 / no-rect / no-amp / max-tu-size=32 / tu-inter-depth=1 / tu-intra-depth=1 / limit-tu=0 / rdoq-level=0 / dynamic-rd=0.00 / no-ssim-rd / signhide / no-tskip / nr-intra=0 / nr-inter=0 / no-constrained-intra / strong-intra-smoothing / max-merge=2 / limit-refs=3 / no-limit-modes / me=1 / subme=2 / merange=57 / temporal-mvp / weightp / no-weightb / no-analyze-src-pics / deblock=0:0 / no-sao / no-sao-non-deblock / rd=3 / no-early-skip / rskip / no-fast-intra / no-tskip-fast / no-cu-lossless / no-b-intra / no-splitrd-skip / rdpenalty=0 / psy-rd=2.00 / psy-rdoq=0.00 / no-rd-refine / no-lossless / cbqpoffs=0 / crqpoffs=0 / rc=crf / crf=16.0 / qcomp=0.60 / qpstep=4 / stats-write=0 / stats-read=0 / vbv-maxrate=160000 / vbv-bufsize=160000 / vbv-init=0.9 / crf-max=0.0 / crf-min=0.0 / ipratio=1.40 / pbratio=1.30 / aq-mode=1 / aq-strength=1.00 / cutree / zone-count=0 / no-strict-cbr / qg-size=32 / no-rc-grain / qpmax=69 / qpmin=0 / no-const-vbv / sar=1 / overscan=0 / videoformat=5 / range=0 / colorprim=9 / transfer=16 / colormatrix=9 / chromaloc=1 / chromaloc-top=2 / chromaloc-bottom=2 / display-window=0 / master-display=G(13250,34500)B(7500,3000)R(34000,16000)WP(15635,16450)L(10000000,01) / max-cll=0,0 / min-luma=0 / max-luma=1023 / log2-max-poc-lsb=8 / vui-timing-info / vui-hrd-info / slices=1 / opt-qp-pps / opt-ref-list-length-pps / no-multi-pass-opt-rps / scenecut-bias=0.05 / no-opt-cu-delta-qp / no-aq-motion / hdr / hdr-opt / no-dhdr10-opt / no-idr-recovery-sei / analysis-reuse-level=5 / scale-factor=0 / refine-intra=0 / refine-inter=0 / refine-mv=0 / refine-ctu-distortion=0 / no-limit-sao / ctu-info=0 / no-lowpass-dct / refine-analysis-type=0 / copy-pic=1 / max-ausize-factor=1.0 / no-dynamic-refine / no-single-sei / no-hevc-aq / qp-adaptation-range=1.00
Default : Да
Forced : Нет
Цветовой диапазон : Limited
Основные цвета : BT.2020
Характеристики трансфера : PQ
Коэффициенты матрицы : BT.2020 non-constant
MasteringDisplay_ColorPrimaries : Display P3
MasteringDisplay_Luminance : min: 0.0001 cd/m2, max: 1000 cd/m2

Аудио #1
Идентификатор : 2
Формат : AC-3
Формат/Информация : Audio Coding 3
Идентификатор кодека : A_AC3
Продолжительность : 1 ч. 49 м.
Вид битрейта : Постоянный
Битрейт : 640 Кбит/сек
Каналы : 6 каналов
Расположение каналов : Front: L C R, Side: L R, LFE
Частота : 48,0 КГц
Частота кадров : 31,250 кадров/сек (1536 SPF)
Битовая глубина : 16 бит
Метод сжатия : С потерями
Задержка видео : 1 мс.
Размер потока : 502 Мбайт (2%)
Заголовок : Dub License
Язык : Russian
ServiceKind/String : Complete Main
Default : Да
Forced : Да

Аудио #2
Идентификатор : 3
Формат : AC-3
Формат/Информация : Audio Coding 3
Идентификатор кодека : A_AC3
Продолжительность : 1 ч. 49 м.
Вид битрейта : Постоянный
Битрейт : 192 Кбит/сек
Каналы : 2 канала
Расположение каналов : Front: L R
Частота : 48,0 КГц
Частота кадров : 31,250 кадров/сек (1536 SPF)
Битовая глубина : 16 бит
Метод сжатия : С потерями
Размер потока : 151 Мбайт (1%)
Язык : Ukrainian
ServiceKind/String : Complete Main
Default : Нет
Forced : Нет

Аудио #3
Идентификатор : 4
Формат : TrueHD
Профиль формата : TrueHD+Atmos / TrueHD
Идентификатор кодека : A_TRUEHD
Продолжительность : 1 ч. 49 м.
Вид битрейта : Переменный
Битрейт : 4723 Кбит/сек
Максимальный битрейт : 8355 Кбит/сек
Каналы : Object Based / 8 каналов
Расположение каналов : Object Based / Front: L C R, Side: L R, Back: L R, LFE
Частота : / 48,0 КГц
Частота кадров : 1200,000 кадров/сек (40 SPF)
Метод сжатия : Без потерь
Задержка видео : 33 мс.
Размер потока : 3,62 Гбайт (13%)
Заголовок : Original
Язык : English
Default : Нет
Forced : Нет

Аудио #4
Идентификатор : 5
Формат : AC-3
Формат/Информация : Audio Coding 3
Идентификатор кодека : A_AC3
Продолжительность : 1 ч. 49 м.
Вид битрейта : Постоянный
Битрейт : 640 Кбит/сек
Каналы : 6 каналов
Расположение каналов : Front: L C R, Side: L R, LFE
Частота : 48,0 КГц
Частота кадров : 31,250 кадров/сек (1536 SPF)
Битовая глубина : 16 бит
Метод сжатия : С потерями
Задержка видео : 32 мс.
Размер потока : 502 Мбайт (2%)
Язык : English
ServiceKind/String : Complete Main
Default : Нет
Forced : Нет

Текст #1
Идентификатор : 6
Формат : UTF-8
Идентификатор кодека : S_TEXT/UTF8
Идентификатор кодека/Информация : UTF-8 Plain Text
Продолжительность : 1 ч. 22 м.
Битрейт : 5 бит/сек
ElementCount : 94
Размер потока : 3,22 Кбайт (0%)
Заголовок : Forced
Язык : Russian
Default : Да
Forced : Да

Текст #2
Идентификатор : 7
Формат : UTF-8
Идентификатор кодека : S_TEXT/UTF8
Идентификатор кодека/Информация : UTF-8 Plain Text
Продолжительность : 1 ч. 42 м.
Битрейт : 59 бит/сек
ElementCount : 1016
Размер потока : 44,9 Кбайт (0%)
Заголовок : Full
Язык : Russian
Default : Нет
Forced : Нет

Текст #3
Идентификатор : 8
Формат : UTF-8
Идентификатор кодека : S_TEXT/UTF8
Идентификатор кодека/Информация : UTF-8 Plain Text
Продолжительность : 1 ч. 42 м.
Битрейт : 49 бит/сек
ElementCount : 1447
Размер потока : 37,3 Кбайт (0%)
Заголовок : SDH
Язык : English
Default : Нет
Forced : Нет

Меню
00:00:00.000 : :Глава 01
00:06:30.264 : :Глава 02
00:13:46.659 : :Глава 03
00:20:30.479 : :Глава 04
00:26:26.960 : :Глава 05
00:34:08.129 : :Глава 06
00:41:09.758 : :Глава 07
00:48:40.542 : :Глава 08
00:55:50.055 : :Глава 09
01:03:20.630 : :Глава 10
01:10:27.765 : :Глава 11
01:17:21.053 : :Глава 12
01:25:46.766 : :Глава 13
01:32:18.324 : :Глава 14
01:38:47.630 : :Глава 15
01:42:38.360 : :Глава 16
pb.wtf



Скачать Оверлорд через торрент https://b.radikal.ru/b24/1902/4d/981e6133c79c.png Скачать фильм Оверлорд через торрент бесплантно в хорошем качестве Описание: Накануне высадки союзников в Нормандии отряд американских десантников проникают в оккупированный немцами посёлок, чтобы разрушить ... 10 10 8
Info! Золотая раздача, скачанное не засчитывается.
Торрент: Зарегистрирован [2019-02-14 03:27] · скачан: 135 раз
Статус: √ проверено
Размер: 27.6 GB
Как cкачать? Как скачать Оверлорд через торрент | qTorrent

% Раздел Тема Автор DL S | L
Фильмы [HD 720p, 1080p] (Хороший звук DUB, MVO) [ 4.28 GB ] Оверлорд / Overlord [2018 военный BDRip 720p Dub MVO AVO] от ExKinoRay morfyi Скачать
2 | 0
Фильмы 2018 [DVDrip, WEB-DLRip, HDrip] (DUB, MVO) [ 1.46 GB ] Оверлорд / Overlord [2018 BDRip] - [] Twi7ter Скачать
10 | 0
Фильмы 2018 [DVDrip, WEB-DLRip, HDrip] (DUB, MVO) [ 2.18 GB ] Оверлорд / Overlord [2018 BDRip] - [] Twi7ter Скачать
6 | 0
Фильмы [HD 720p, 1080p] (Хороший звук DUB, MVO) [ 2.73 GB ] Оверлорд / Overlord [2018 военный BDRip 1080p HEVC ()] Мичман37 Скачать
4 | 0
Фильмы 2018 [DVDrip, WEB-DLRip, HDrip] (DUB, MVO) [ 1.91 GB ] Оверлорд / Overlord [2018 BDRip-AVC] MVO [HDrezka Studio] +DUB [] bober100 Скачать
3 | 0
Фильмы [HD 720p, 1080p] (Хороший звук DUB, MVO) [ 5.28 GB ] Оверлорд / Overlord [2018 BDRip 720p] DUB [] sheker187 Скачать
28 | 0
Фильмы (Blu-ray, BD-Remux, HDDVD) [ 25.31 GB ] Оверлорд / Overlord [2018 BDRemux 1080p] DUB + MVO [HDrezka Studio] sheker187 Скачать
1 | 0


Последний раз редактировалось: sheker187 (2019-02-14 03:30), всего редактировалось 1 раз

28-11-2019 20:33  

Отключить всю рекламу на сайте

15-02-2019 06:26 Оверлорд Скачать торрент  

+pb.wtf



24-02-2019 21:17 Оверлорд Скачать торрент  

звуковая дорожка отстает секунды на 2-3, в топку такие релизыpb.wtf



    Дорогой пользователь! Огромная просьба, поблагодарите релизера, оцените раздачу и оставьте свои комментарий, если Вы скачали Оверлорд через торрент бесплатно! Внесите свою лепту в развитие PiratBit!
    Комментировать посты могут только пользователи прошедшие не сложную регистрацию
    Показать сообщения:    

    Оверлорд через торрент
    Скачать бесплатно Оверлорд
    Оверлорд скачать торрент
    Оверлорд смотреть онлайн
    Cкачать фильм Оверлорд бесплатно
    Оверлорд скачать торрент в хорошем качестве
    Оверлорд смотреть онлайн бесплатно в хорошем качестве


    Вы не можете начинать темы
    Вы не можете отвечать на сообщения
    Вы не можете редактировать свои сообщения
    Вы не можете удалять свои сообщения
    Вы не можете голосовать в опросах
    Вы не можете прикреплять файлы к сообщениям
    Вы можете скачивать файлы