Ссылка на приватное зеркало всего за 1$. Внимание количество ограничено!!!

OK

1+1

iTunes

мы

OK

1

WEB-DLRip

Джокер

Пифагор

Ведьмак / The Witcher сериал

Лицензия

ПШазам

ОК

Оно 2

iTunes

30
pack

Вам бонус

ВАЖНО

!!Акция!!

Alien_RageХит недели

RePack

Resident Evil 21

ИГРА 18+

pack

RePack

jed

!!Акция!!

Alien_Rage

RePack

fifa19

RePack

Assassins Creed: Odyssey

RePack

NEED FOR SPEED™ PAYBACK

4 сезон

9 сезон

Бесстыжие 9 сезон

Все сериалы

все сериалы на PB.wtf

RePack

FAR CRY 5
  

Снежная Королева: Зазеркалье (Алексей Цицилин, Роберт Ленс) [2018, мультфильм, семейный, WEB-DLRip] iTunes pb.wtf

Снежная Королева: Зазеркалье через торрент pb.wtf

Размер: 1.46 GB | Добавлен: 11 мес. назад | Торрент скачан:267 раз
Скачать  

12-02-2019 23:31 Снежная Королева: Зазеркалье Скачать торрент  

Снежная Королева: Зазеркалье
Год выпуска: 2018
Страна: Россия
Жанр: мультфильм, семейный
Продолжительность: 01:23:21
Субтитры: Отсутствуют

Режиссер: Алексей Цицилин, Роберт Ленс

Премьера в мире: 21 декабря 2018



В ролях: Лина Иванова, Владимир Зайцев, Ольга Зубкова, Никита Прозоровский, Всеволод Кузнецов, Ляйсан Утяшева, Ирина Безрукова, Надежда Ангарская, Николай Быстров

Описание: Могущественный король Харальд чуть не потерял семью из-за Снежной Королевы. Он находит способ очистить мир от волшебства - все обладатели магических способностей отныне заточены в Зазеркалье. Остановить его и не дать сказке навсегда исчезнуть из нашего мира может только Герда. Ведь ее главная сила не в волшебстве, а вере в добро и дружбу. В новом приключении на помощь Герде придут тролли, пираты и даже сама Снежная Королева.

Качество: WEB-DLRip
Формат: AVI
Видео кодек: XviD
Аудио кодек: AC3
Видео: XviD,720x304, 25.000 fps, 2115 Кбит/с
Аудио#1: AC3, 6 ch, 384 Kbps
скриншот   скриншот   скриншот  

General
Complete name : H:\релизы.торрентфайл\The.Snow.Queen.The.Looking.GlassWEB-DLRip.ELEKTRI4KA.UNIONGANG.avi
Format : AVI
Format/Info : Audio Video Interleave
Format profile : OpenDML
File size : 1.46 GiB
Duration : 1h 23mn
Overall bit rate : 2 506 Kbps
Movie name : uniongang.org
Writing application : Lavf57.71.100

Video
ID : 0
Format : MPEG-4 Visual
Format profile : Advanced Simple@L5
Format settings, BVOP : 1
Format settings, QPel : No
Format settings, GMC : No warppoints
Format settings, Matrix : Default (H.263)
Codec ID : XVID
Codec ID/Hint : XviD
Duration : 1h 23mn
Bit rate : 2 110 Kbps
Width : 720 pixels
Height : 304 pixels
Display aspect ratio : 2.40:1
Frame rate : 25.000 fps
Color space : YUV
Chroma subsampling : 4:2:0
Bit depth : 8 bits
Scan type : Progressive
Compression mode : Lossy
Bits/(Pixel*Frame) : 0.386
Stream size : 1.23 GiB (84%)
Title : uniongang.org
Writing library : XviD 67

Audio
ID : 1
Format : AC-3
Format/Info : Audio Coding 3
Mode extension : CM (complete main)
Format settings, Endianness : Big
Codec ID : 2000
Duration : 1h 23mn
Bit rate mode : Constant
Bit rate : 384 Kbps
Channel(s) : 6 channels
Channel positions : Front: L C R, Side: L R, LFE
Sampling rate : 48.0 KHz
Bit depth : 16 bits
Compression mode : Lossy
Stream size : 229 MiB (15%)
Alignment : Aligned on interleaves
Interleave, duration : 32 ms (0.80 video frame)
Title : uniongang.org

pb.wtf



Скачать Снежная Королева: Зазеркалье через торрент http://pic1.kartinco.top/images/12/it54q.jpg Скачать фильм Снежная Королева: Зазеркалье через торрент бесплантно в хорошем качестве Описание: Могущественный король Харальд чуть не потерял семью из-за Снежной Королевы. Он находит способ очистить мир от волшебства - все ... 9.8 10 5
Торрент: Зарегистрирован [2019-02-12 23:31] · скачан: 267 раз
Статус: ∑ поглощено
Размер: 1.46 GB
Как cкачать? Как скачать Снежная Королева: Зазеркалье через торрент | qTorrent

% Раздел Тема Автор DL S | L
Наши мультфильмы [ 1.64 GB ] Снежная Королева: Зазеркалье [2018 мультфильм WEB-DLRip-AVC] - ExKinoRay Enigma2010 Скачать
2 | 0
Наши Мультфильмы (HD, WEB-DL 720p, 1080p) [ 2.55 GB ] Снежная Королева: Зазеркалье [2018 мультфильм WEB-DL 720p] bober100 Скачать
1 | 0
Наши Мультфильмы (HD, WEB-DL 720p, 1080p) [ 2.86 GB ] Снежная Королева: Зазеркалье [2018 мультфильм WEB-DL 1080p] oleg8 Скачать
1 | 0

28-11-2019 20:33  

Отключить всю рекламу на сайте

01-01-2020 01:13 Снежная Королева: Зазеркалье Скачать торрент  

Топик был перенесен из форума Наши мультфильмы в форум Для поглощённых раздач

Причина переноса: Снежная Королева: Зазеркалье
bober100pb.wtf



    Дорогой пользователь! Огромная просьба, поблагодарите релизера, оцените раздачу и оставьте свои комментарий, если Вы скачали Снежная Королева: Зазеркалье через торрент бесплатно! Внесите свою лепту в развитие PiratBit!
    Комментировать посты могут только пользователи прошедшие не сложную регистрацию
    Показать сообщения:    

    Снежная Королева: Зазеркалье через торрент
    Скачать бесплатно Снежная Королева: Зазеркалье
    Снежная Королева: Зазеркалье скачать торрент
    Снежная Королева: Зазеркалье смотреть онлайн
    Cкачать фильм Снежная Королева: Зазеркалье бесплатно
    Снежная Королева: Зазеркалье скачать торрент в хорошем качестве
    Снежная Королева: Зазеркалье смотреть онлайн бесплатно в хорошем качестве


    Вы не можете начинать темы
    Вы не можете отвечать на сообщения
    Вы не можете редактировать свои сообщения
    Вы не можете удалять свои сообщения
    Вы не можете голосовать в опросах
    Вы не можете прикреплять файлы к сообщениям
    Вы можете скачивать файлы