Ссылка на приватное зеркало нашего сайта всего за 1$. Внимание количество ограничено!!!

2 сезон

iTunes

1 сезон

1

iTunes

iTunes

iTunes

1 сезон

RePack

30

ИГРА 18+

pack

ВАЖНО

!!Акция!!

Alien_RageХит недели

RePack

MK11
pack

Забери бонус

RePack

jed

!!Акция!!

Alien_Rage

RePack

fifa19

RePack

Assassins Creed: Odyssey

RePack

NEED FOR SPEED™ PAYBACK

4 сезон

9 сезон

Бесстыжие 9 сезон

Все сериалы

все сериалы на PB.wtf

RePack

FAR CRY 5
  

Отличница / Сезон: 1 / Серии: 1-8 из 8 (Оксана Карас) [2017, Приключения, детектив, драма, HDTVRip 720p] pb.wtf

Отличница через торрент pb.wtf

Качают: 1 [ 0 KB/s ]
Размер: 9.48 GB | Добавлен: 1 год 8 мес. назад | Торрент скачан:117 раз
Скачать  

13-02-2019 02:50 Отличница Скачать торрент  

Отличница Год выпуска: 2017
Страна: Россия
Жанр: Приключения, детектив, драма
Продолжительность: ~ 00:46:00
Перевод: Не требуется
Субтитры: отсутствуют

Режиссер: Оксана Карас



В ролях:

Яна Гладких, Никита Ефремов, Таисия Вилкова, Александр Яценко, Валентин Самохин, Дмитрий Лысенков, Владимир Мишуков, Виталий Коваленко, Юлия Ауг, Мартиньш Вилсонс, Елена Коренева, Игорь Скляр, Елена Руфанова, Анна Цуканова-Котт, Маргарита Адаева, Валерий Кухарешин, Анатолий Хропов

Описание:

Апрель 1958 года, выпускница юридического факультета Ленинградского университета, кафедры уголовного процесса и криминалистики Мария Крапивина получает распределение в УГРО центрального районного отдела милиции. Совсем еще девчонка, отличница, дочь интеллигентных родителей попадает в коллектив состоящий из прошедших войну грубоватых и опытных оперативников. В первый же день Маша хочет уволиться. Но ей в руки попадает информация о предателе в отделе, связанного с крупной и дерзкой бандой. Маша решает, что ее долг остаться и раскрыть «крота». А кроме того, доказать, что она чего-то стоит. Под подозрение попадают все, в том числе начальник отдела опер Шведов, «неотесанный мужлан», в которого Маша неожиданно для себя влюбляется, и с каждым днем все больше и больше…

Качество: HDTVRip 720p
Формат: MKV

Видео: MPEG4 AVC Video, H264, 16:9, 1280x720, 25 fps, ~3500 kbps, 0.152 bit/pixel
Аудио: AC3 Dolby Digital, 48 kHz, 2/0 (L,R) ch, 192 kbps
скриншот  скриншот  скриншот  скриншот  

General
Unique ID : 205062659265415658316491749102256599396 (0x9A45A1B03E0752019D0B0A0FBC4F3164)
Complete name : D:\Отличница 2017 HDTVRip 720p\01.Otlichnica.HDTVRip.(720p).GeneralFilm.mkv
Format : Matroska
Format version : Version 2
File size : 1.20 GiB
Duration : 46mn 28s
Overall bit rate : 3 692 Kbps
Encoded date : UTC 2017-09-25 16:50:42
Writing application : mkvmerge v6.1.0 ('Old Devil') built on Mar 4 2013 09:10:42
Writing library : libebml v1.3.0 + libmatroska v1.4.0

Video
ID : 1
Format : AVC
Format/Info : Advanced Video Codec
Format profile : High@L4.1
Format settings, CABAC : Yes
Format settings, ReFrames : 9 frames
Codec ID : V_MPEG4/ISO/AVC
Duration : 46mn 28s
Bit rate : 3 500 Kbps
Width : 1 280 pixels
Height : 720 pixels
Display aspect ratio : 16:9
Frame rate mode : Constant
Frame rate : 25.000 fps
Color space : YUV
Chroma subsampling : 4:2:0
Bit depth : 8 bits
Scan type : Progressive
Bits/(Pixel*Frame) : 0.152
Stream size : 1.11 GiB (93%)
Writing library : x264 core 130 r2273 b3065e6
Encoding settings : cabac=1 / ref=9 / deblock=1:-2:-1 / analyse=0x3:0x133 / me=umh / subme=9 / psy=1 / psy_rd=1.00:0.15 / mixed_ref=1 / me_range=32 / chroma_me=1 / trellis=2 / 8x8dct=1 / cqm=0 / deadzone=21,11 / fast_pskip=0 / chroma_qp_offset=-3 / threads=18 / lookahead_threads=3 / sliced_threads=0 / nr=0 / decimate=0 / interlaced=0 / bluray_compat=0 / constrained_intra=0 / bframes=9 / b_pyramid=2 / b_adapt=2 / b_bias=0 / direct=1 / weightb=1 / open_gop=0 / weightp=2 / keyint=250 / keyint_min=25 / scenecut=40 / intra_refresh=0 / rc=2pass / mbtree=0 / bitrate=3500 / ratetol=1.0 / qcomp=0.60 / qpmin=0 / qpmax=69 / qpstep=4 / cplxblur=20.0 / qblur=0.5 / ip_ratio=1.40 / pb_ratio=1.30 / aq=2:1.00
Default : Yes
Forced : No
Color primaries : BT.709
Transfer characteristics : BT.709
Matrix coefficients : BT.709

Audio
ID : 2
Format : AC-3
Format/Info : Audio Coding 3
Mode extension : CM (complete main)
Format settings, Endianness : Big
Codec ID : A_AC3
Duration : 46mn 28s
Bit rate mode : Constant
Bit rate : 192 Kbps
Channel count : 2 channels
Channel positions : Front: L R
Sampling rate : 48.0 KHz
Bit depth : 16 bits
Compression mode : Lossy
Stream size : 63.8 MiB (5%)
Default : Yes
Forced : No

pb.wtf



Скачать Отличница через торрент http://s013.radikal.ru/i325/1709/f2/a2e5ce4197cb.jpg Скачать фильм Отличница через торрент бесплантно в хорошем качестве Описание: Апрель 1958 года, выпускница юридического факультета Ленинградского университета, кафедры уголовного процесса и криминалистики ... 10 10 5
Торрент: Зарегистрирован [2019-02-13 02:50] · скачан: 117 раз
Статус: √ проверено
Размер: 9.48 GB
Как cкачать? Как скачать Отличница через торрент | qTorrent

% Раздел Тема Автор DL S | L
Наши сериалы [ 21.28 GB ] Отличница / Сезон: 1 / Серии: 1-8 из 8 [2017 HDTV 1080i] bober100 Скачать
1 | 0
Наши сериалы [ 12.6 GB ] Отличница / Сезон: 1 / Серии: 1-8 из 8 [2017 WEB-DL 1080p] bober100 Скачать
1 | 0

28-11-2019 20:33  

Отключить всю рекламу на сайте

    Дорогой пользователь! Огромная просьба, поблагодарите релизера, оцените раздачу и оставьте свои комментарий, если Вы скачали Отличница через торрент бесплатно! Внесите свою лепту в развитие PiratBit!
    Комментировать посты могут только пользователи прошедшие не сложную регистрацию
    Показать сообщения:    

    Отличница через торрент
    Скачать бесплатно Отличница
    Отличница скачать торрент
    Отличница смотреть онлайн
    Cкачать фильм Отличница бесплатно
    Отличница скачать торрент в хорошем качестве
    Отличница смотреть онлайн бесплатно в хорошем качестве


    Вы не можете начинать темы
    Вы не можете отвечать на сообщения
    Вы не можете редактировать свои сообщения
    Вы не можете удалять свои сообщения
    Вы не можете голосовать в опросах
    Вы не можете прикреплять файлы к сообщениям
    Вы можете скачивать файлы