новый адрес
Ссылка на приватное зеркало всего за 1$. Внимание количество ограничено!!!

iTunes

1+1

iTunes

мы

WEB-DL

1

iTunes

Чернобыль

iTunes

Ральф против интернета

Лицензия

ПШазам

Лицензия

Оно 2

Лицензия

30
pack

Вам бонус

ВАЖНО

!!Акция!!

Alien_RageХит недели

RePack

Resident Evil 21

ИГРА 18+

pack

RePack

jed

!!Акция!!

Alien_Rage

RePack

fifa19

RePack

Assassins Creed: Odyssey

RePack

NEED FOR SPEED™ PAYBACK

3 сезон

9 сезон

Бесстыжие 9 сезон

Все сериалы

все сериалы на PB.wtf

RePack

FAR CRY 5
Ребята, катастрофически не хватает 1900р. для оплаты серверов за Октябрь (всвязи с блокировками трафик упал в 3 раза), 1-2р., выручайте.
  

Цветок на камне (Анатолий Слесаренко, Сергей Параджанов) [1962, СССР, драма, DVDRip от AVP Studio] pb.wtf

Цветок на камне через торрент pb.wtf

Размер: 744 MB | Добавлен: 9 мес. назад | Торрент скачан:5 раз
Скачать  

13-02-2019 10:04 Цветок на камне Скачать торрент  

Цветок на камне
Страна: СССР
Производство: Киностудия им. А. Довженко

Жанр: драма
Год выпуска: 1962
Продолжительность: 01:11:12

Перевод: Не требуется
Cубтитры: нет
Оригинальная аудиодорожка: русский

Режиссер: Анатолий Слесаренко, Сергей Параджанов

В ролях:
Григорий Карпов, Людмила Черепанова, Инна Бурдученко, Борис Дмоховский, Георгий Епифанцев, Михаил Названов, Дмитрий Франько...
Об актёрах подробней

Описание:
На месте донецкой степи, заросшей ромашкой и ковылем, разрастается шахтерский городок. Бригадир молодежной шахты Григорий Грива влюблен в комсорга Люду и потому часто открыто иронизирует над ее организаторскими способностями. Но когда остается с ней наедине, становится робким и застенчивым, за что злится на себя и выдумывает новые шалости... Вторая история связана с появлением в шахтерском городке Христины, красивой, но замкнутой девушки, попавшей под влияние пресвитера секты. Полюбивший ее комсомолец Арсен помогает девушке уйти из секты.

Источник: DVD5 R5
Качество видео: DVDRip
Формат видео: AVI

Видео: 688х512 (4:3), 25 fps, XviD ~ 1258 kbps avg, 0.143 bit/pixel
Аудио: 48 kHz, Dolby Digital AC3 2.0, 192 kbps

Раздача от:
Общее
Полное имя : Cvetok.na.kamne.1962.DVDRip_[New-team]_by_AVP_Studio.avi
Формат : AVI
Формат/Информация : Audio Video Interleave
Размер файла : 744 Мбайт
Продолжительность : 1 ч. 11 м.
Общий поток : 1460 Кбит/сек
Программа кодирования : VirtualDubMod 1.5.10.3 | www.virtualdub-fr.org || (build 2550/release)
Библиотека кодирования : VirtualDubMod build 2550/release

Видео
Идентификатор : 0
Формат : MPEG-4 Visual
Профиль формата : Advanced Simple@L5
Настройки формата : BVOP1 / Custom Matrix
Параметр BVOP формата : 1
Параметр QPel формата : Нет
Параметр GMC формата : Без точки перехода
Параметр матрицы формата : Выборочная
Идентификатор кодека : XVID
Идентификатор кодека/Подсказка : XviD
Продолжительность : 1 ч. 11 м.
Битрейт : 1258 Кбит/сек
Ширина : 688 пикселей
Высота : 512 пикселей
Соотношение сторон : 4:3
Частота кадров : 25,000 кадров/сек
Цветовое пространство : YUV
Субдискретизация насыщенности : 4:2:0
Битовая глубина : 8 бит
Тип развёртки : Прогрессивная
Метод сжатия : С потерями
Бит/(Пиксели*Кадры) : 0.143
Размер потока : 641 Мбайт (86%)
Библиотека кодирования : XviD 73

Аудио
Идентификатор : 1
Формат : AC-3
Формат/Информация : Audio Coding 3
Коммерческое название : Dolby Digital
Идентификатор кодека : 2000
Продолжительность : 1 ч. 11 м.
Вид битрейта : Постоянный
Битрейт : 192 Кбит/сек
Каналы : 2 канала
Channel layout : L R
Частота : 48,0 КГц
Частота кадров : 31,250 кадров/сек (1536 SPF)
Битовая глубина : 16 бит
Метод сжатия : С потерями
Размер потока : 97,8 Мбайт (13%)
Выравнивание : Разделение по промежуткам
Продолжительность промежутка : 40 мс. (1,00 видеокадр)
Время предзагрузки промежутка : 500 мс
pb.wtf



Скачать Цветок на камне через торрент http://picplus.ru/img/1902/13/829b0f28.png Скачать фильм Цветок на камне через торрент бесплантно в хорошем качестве Описание:На месте донецкой степи, заросшей ромашкой и ковылем, разрастается шахтерский городок. Бригадир молодежной шахты Григорий Грива ... 5 10 1
Info! Золотая раздача, скачанное не засчитывается.
Торрент: Зарегистрирован [2019-02-13 10:04] · скачан: 5 раз
Статус: √ проверено
Размер: 744 MB
Как cкачать? Как скачать Цветок на камне через торрент | qTorrent

% Раздел Тема Автор DL S | L
Кино СССР [ 1.09 GB ] Цветок на камне [1962 СССР DVDRip-AVC от AVP Studio] AVP Studio Скачать
1 | 0

28-11-2019 20:33  

Отключить всю рекламу на сайте

    Дорогой пользователь! Огромная просьба, поблагодарите релизера, оцените раздачу и оставьте свои комментарий, если Вы скачали Цветок на камне через торрент бесплатно! Внесите свою лепту в развитие PiratBit!
    Комментировать посты могут только пользователи прошедшие не сложную регистрацию
    Показать сообщения:    

    Цветок на камне через торрент
    Скачать бесплатно Цветок на камне
    Цветок на камне скачать торрент
    Цветок на камне смотреть онлайн
    Cкачать фильм Цветок на камне бесплатно
    Цветок на камне скачать торрент в хорошем качестве
    Цветок на камне смотреть онлайн бесплатно в хорошем качестве


    Вы не можете начинать темы
    Вы не можете отвечать на сообщения
    Вы не можете редактировать свои сообщения
    Вы не можете удалять свои сообщения
    Вы не можете голосовать в опросах
    Вы не можете прикреплять файлы к сообщениям
    Вы можете скачивать файлы