Ссылка на приватное зеркало нашего сайта всего за 1$. Внимание количество ограничено!!!

2 сезон

iTunes

1 сезон

1

2 сезон

2 сезон

iTunes

1 сезон

RePack

30

Ultimate

ВАЖНО

ИГРА 18+

pack

RePack

MK11
pack

Забери бонус

RePack

jed

!!Акция!!

Alien_Rage

RePack

fifa19

RePack

Assassins Creed: Odyssey

RePack

NEED FOR SPEED™ PAYBACK

4 сезон

9 сезон

Бесстыжие 9 сезон

Все сериалы

все сериалы на PB.wtf

RePack

FAR CRY 5
  

Рассказ служанки / The Handmaid's Tale / Сезон: 2 / Серии: 1-13 из 13 (Майк Баркер, Кари Скогланд, Рид Морано) [2018, Фантастика, драма, WEB-DL 720p] MVO [Jaskier] pb.wtf

Рассказ служанки через торрент pb.wtf

Раздают: 1 [ 0 KB/s ]
Размер: 8.82 GB | Добавлен: 1 год 9 мес. назад | Торрент скачан:74 раза
Скачать  

13-07-2018 18:31 Рассказ служанки Скачать торрент  

Рассказ служанки / The Handmaid's Tale

Год выпуска: 2018
Страна: США
Жанр: Фантастика, драма,
Продолжительность: ~ 01:00:00
Перевод: Профессиональный (многоголосый закадровый) | Jaskier
Субтитры: отсутствуют

Режиссёр: Майк Баркер, Кари Скогланд, Рид Морано

В ролях:

Элизабет Мосс, Джозеф Файнс, Самира Уайли, Ивонн Страховски, Макс Мингелла, Энн Дауд, Джордана Блейк, Алексис Бледел, О. Т. Фагбенли, Аманда Бругел

Описание:

Действие разворачивается в республике Гилеад, где у власти стоят военные. В стране жестокие порядки и нравы, уважением в обществе пользуются только офицеры и их жены. Но по никому неизвестным причинам у жен офицеров не рождаются дети. Чтобы продолжить офицерский род, офицеры и их жены выбирают из числа простых девушек ту, которая будет вынашивать их будущего ребенка. Молодые девушки, носители офицерских отпрысков, живут в специальных охраняемых помещениях, больше всего напоминающих тюрьму, и знают, что сразу после родов им придется расстаться со своими детьми.

rating

Качество: WEB-DL 720p
Формат: MKV

Видео: X264, ~ 1666 kbps, 1280x720 (16:9), 23.976 fps
Аудио 1: AC3, 48,0 КГц, 2 ch, 192 kbps - RUS
Аудио 2: AC3, 48,0 КГц, 2 ch, 192 kbps - ENG
Общее
Уникальный идентификатор                 : 193068137485798239441796934351145698703 (0x913F921B4D56C08E930B6AFBC5FC858F)
Формат                                   : Matroska
Версия формата                           : Version 2
Размер файла                             : 823 Мбайт
Продолжительность                        : 56 м.
Общий поток                              : 2047 Кбит/сек
Дата кодирования                         : UTC 2018-05-17 19:29:38
Программа кодирования                    : mkvmerge v5.8.0 ('No Sleep / Pillow') built on Sep  2 2012 15:37:04
Библиотека кодирования                   : libebml v1.2.3 + libmatroska v1.3.0

Видео
Идентификатор                            : 1
Формат                                   : AVC
Формат/Информация                        : Advanced Video Codec
Профиль формата                          : High@L3.1
Параметр CABAC формата                   : Да
Параметр ReFrames формата                : 5 кадров
Идентификатор кодека                     : V_MPEG4/ISO/AVC
Продолжительность                        : 56 м.
Битрейт                                  : 1622 Кбит/сек
Ширина                                   : 1280 пикселей
Высота                                   : 720 пикселей
Соотношение сторон                       : 16:9
Режим частоты кадров                     : Постоянный
Частота кадров                           : 23,976 (24000/1001) кадра/сек
Цветовое пространство                    : YUV
Субдискретизация насыщенности            : 4:2:0
Битовая глубина                          : 8 бит
Тип развёртки                            : Прогрессивная
Бит/(Пиксели*Кадры)                      : 0.073
Размер потока                            : 652 Мбайт (79%)
Default                                  : Да
Forced                                   : Нет

Аудио #1
Идентификатор                            : 2
Формат                                   : AC-3
Формат/Информация                        : Audio Coding 3
Расширение режима                        : CM (complete main)
Параметр Endianness формата              : Big
Идентификатор кодека                     : A_AC3
Продолжительность                        : 56 м.
Вид битрейта                             : Постоянный
Битрейт                                  : 192 Кбит/сек
Каналы                                   : 2 канала
Расположение каналов                     : Front: L R
Частота                                  : 48,0 КГц
Частота кадров                           : 31,250 кадров/сек (1536 spf)
Метод сжатия                             : С потерями
Размер потока                            : 77,2 Мбайт (9%)
Язык                                     : Russian
Default                                  : Нет
Forced                                   : Нет

Аудио #2
Идентификатор                            : 3
Формат                                   : AC-3
Формат/Информация                        : Audio Coding 3
Расширение режима                        : CM (complete main)
Параметр Endianness формата              : Big
Идентификатор кодека                     : A_AC3
Продолжительность                        : 56 м.
Вид битрейта                             : Постоянный
Битрейт                                  : 192 Кбит/сек
Каналы                                   : 2 канала
Расположение каналов                     : Front: L R
Частота                                  : 48,0 КГц
Частота кадров                           : 31,250 кадров/сек (1536 spf)
Метод сжатия                             : С потерями
Размер потока                            : 77,2 Мбайт (9%)
Язык                                     : English
Default                                  : Нет
Forced                                   : Нет
скриншот  скриншот  скриншот  
Когда раздача ведётся путём добавления новых серий, при каждом добавлении создётся новый торрент. Чтобы начать докачку новой серии, пользователям необходимо сделать следующее:
(1) остановить скачивание,
(2) удалить старый торрент у себя из клиента (старые серии удалять не надо),
(3) скачать новый торрент и запустить его у себя в клиенте вместо старого, при этом указать клиенту путь в старую папку, куда и должно происходить скачивание новых серий.
Ваш клиент при этом должен произвести хеширование (проверку) старой папки (если не производит сам - помогите ему сделать это), и будет докачивать только те серии, которых у вас ещё нет. Старые серии при этом не удаляются, а продолжают раздаваться!
Eсли вы уже удалили старые серии, то предотвратить повторную закачку старых серий можно, отжав галочку в соответсвующих местах при запуске нового торрента. По возможности, желательно не удалять старые серии как можно дольше, чтобы релизёр не столько продолжал раздавать старые серии, а смог сконцентрироваться на новых.
pb.wtf



Скачать Рассказ служанки через торрент http://i105.fastpic.ru/big/2018/0518/88/2b19c837fa1857375628988dff786788.jpg Скачать фильм Рассказ служанки через торрент бесплантно в хорошем качестве Описание: Действие разворачивается в республике Гилеад, где у власти стоят военные. В стране жестокие порядки и нравы, уважением в обществе ... 10 10 5
Торрент: Зарегистрирован [2019-02-13 20:01] · скачан: 74 раз
Статус: √ проверено
Размер: 8.82 GB
Как cкачать? Как скачать Рассказ служанки через торрент | qTorrent

28-11-2019 20:33  

Отключить всю рекламу на сайте

    Дорогой пользователь! Огромная просьба, поблагодарите релизера, оцените раздачу и оставьте свои комментарий, если Вы скачали Рассказ служанки через торрент бесплатно! Внесите свою лепту в развитие PiratBit!
    Комментировать посты могут только пользователи прошедшие не сложную регистрацию
    Показать сообщения:    

    Рассказ служанки через торрент
    Скачать бесплатно Рассказ служанки
    Рассказ служанки скачать торрент
    Рассказ служанки смотреть онлайн
    Cкачать фильм Рассказ служанки бесплатно
    Рассказ служанки скачать торрент в хорошем качестве
    Рассказ служанки смотреть онлайн бесплатно в хорошем качестве


    Вы не можете начинать темы
    Вы не можете отвечать на сообщения
    Вы не можете редактировать свои сообщения
    Вы не можете удалять свои сообщения
    Вы не можете голосовать в опросах
    Вы не можете прикреплять файлы к сообщениям
    Вы можете скачивать файлы