Ссылка на приватное зеркало нашего сайта всего за 1$. Внимание количество ограничено!!!

2 сезон

iTunes

1 сезон

1

iTunes

iTunes

iTunes

1 сезон

RePack

30

ИГРА 18+

pack

ВАЖНО

!!Акция!!

Alien_RageХит недели

RePack

MK11
pack

Забери бонус

RePack

jed

!!Акция!!

Alien_Rage

RePack

fifa19

RePack

Assassins Creed: Odyssey

RePack

NEED FOR SPEED™ PAYBACK

4 сезон

9 сезон

Бесстыжие 9 сезон

Все сериалы

все сериалы на PB.wtf

RePack

FAR CRY 5
  

Отличница / Сезон: 1 / Серии: 1-8 из 8 (Оксана Карас) [2017, Приключения, детектив, драма, HDTV 1080i] pb.wtf

Отличница через торрент pb.wtf

Размер: 21.28 GB | Добавлен: 1 год 8 мес. назад | Торрент скачан:17 раз
Скачать  

13-02-2019 20:53 Отличница Скачать торрент  

Отличница Год выпуска: 2017
Страна: Россия
Жанр: Приключения, детектив, драма
Продолжительность: ~ 00:46:00
Перевод: Не требуется
Субтитры: отсутствуют

Режиссер: Оксана Карас



В ролях:

Яна Гладких, Никита Ефремов, Таисия Вилкова, Александр Яценко, Валентин Самохин, Дмитрий Лысенков, Владимир Мишуков, Виталий Коваленко, Юлия Ауг, Мартиньш Вилсонс, Елена Коренева, Игорь Скляр, Елена Руфанова, Анна Цуканова-Котт, Маргарита Адаева, Валерий Кухарешин, Анатолий Хропов

Описание:

Апрель 1958 года, выпускница юридического факультета Ленинградского университета, кафедры уголовного процесса и криминалистики Мария Крапивина получает распределение в УГРО центрального районного отдела милиции. Совсем еще девчонка, отличница, дочь интеллигентных родителей попадает в коллектив состоящий из прошедших войну грубоватых и опытных оперативников. В первый же день Маша хочет уволиться. Но ей в руки попадает информация о предателе в отделе, связанного с крупной и дерзкой бандой. Маша решает, что ее долг остаться и раскрыть «крота». А кроме того, доказать, что она чего-то стоит. Под подозрение попадают все, в том числе начальник отдела опер Шведов, «неотесанный мужлан», в которого Маша неожиданно для себя влюбляется, и с каждым днем все больше и больше…

Качество: HDTV 1080i
Формат: TS

Видео: MPEG4 AVC Video, H264, 16:9, 1920x1080, 25 fps, ~7200 kbps
Аудио#1: AC3, 6 ch, 384 kbps, 16 bits, 48 kHz
Аудио#2: MP2, 2 ch, 192 kbps, 16 bits, 48.0 KHz
скриншот  скриншот  скриншот  скриншот  

General
ID : 1 (0x1)
Complete name : D:\Отличница 2017 HDTV 1080i\01.Otlichnica.HDTV(1080i).GeneralFilm.ts
Format : MPEG-TS
File size : 2.65 GiB
Duration : 46mn 29s
Overall bit rate mode : Variable
Overall bit rate : 8 162 Kbps

Video
ID : 1904 (0x770)
Menu ID : 80 (0x50)
Format : AVC
Format/Info : Advanced Video Codec
Format profile : High@L4.0
Format settings, CABAC : Yes
Format settings, ReFrames : 3 frames
Codec ID : 27
Duration : 46mn 28s
Bit rate : 7 177 Kbps
Width : 1 920 pixels
Height : 1 080 pixels
Display aspect ratio : 16:9
Frame rate : 25.000 fps
Standard : Component
Color space : YUV
Chroma subsampling : 4:2:0
Bit depth : 8 bits
Scan type : Interlaced
Scan order : Top Field First
Bits/(Pixel*Frame) : 0.138
Stream size : 2.33 GiB (88%)
Color primaries : BT.709
Transfer characteristics : BT.709
Matrix coefficients : BT.709

Audio #1
ID : 2904 (0xB58)
Menu ID : 80 (0x50)
Format : AC-3
Format/Info : Audio Coding 3
Mode extension : CM (complete main)
Format settings, Endianness : Big
Codec ID : 6
Duration : 46mn 28s
Bit rate mode : Constant
Bit rate : 384 Kbps
Channel count : 6 channels
Channel positions : Front: L C R, Side: L R, LFE
Sampling rate : 48.0 KHz
Bit depth : 16 bits
Compression mode : Lossy
Delay relative to video : -120ms
Stream size : 128 MiB (5%)
Language : Russian

Audio #2
ID : 2905 (0xB59)
Menu ID : 80 (0x50)
Format : MPEG Audio
Format version : Version 1
Format profile : Layer 2
Codec ID : 3
Duration : 46mn 28s
Bit rate mode : Constant
Bit rate : 192 Kbps
Channel count : 2 channels
Sampling rate : 48.0 KHz
Compression mode : Lossy
Delay relative to video : -120ms
Stream size : 63.8 MiB (2%)
Language : Russian

pb.wtf



Скачать Отличница через торрент http://s013.radikal.ru/i325/1709/f2/a2e5ce4197cb.jpg Скачать фильм Отличница через торрент бесплантно в хорошем качестве Описание: Апрель 1958 года, выпускница юридического факультета Ленинградского университета, кафедры уголовного процесса и криминалистики ... 10 10 3
Info! Золотая раздача, скачанное не засчитывается.
Торрент: Зарегистрирован [2019-02-13 20:53] · скачан: 17 раз
Статус: √ проверено
Размер: 21.28 GB
Как cкачать? Как скачать Отличница через торрент | qTorrent

% Раздел Тема Автор DL S | L
Наши сериалы [ 12.6 GB ] Отличница / Сезон: 1 / Серии: 1-8 из 8 [2017 WEB-DL 1080p] bober100 Скачать
1 | 0
Наши сериалы [ 9.48 GB ] Отличница / Сезон: 1 / Серии: 1-8 из 8 [2017 HDTVRip 720p] bober100 Скачать
1 | 1

28-11-2019 20:33  

Отключить всю рекламу на сайте

    Дорогой пользователь! Огромная просьба, поблагодарите релизера, оцените раздачу и оставьте свои комментарий, если Вы скачали Отличница через торрент бесплатно! Внесите свою лепту в развитие PiratBit!
    Комментировать посты могут только пользователи прошедшие не сложную регистрацию
    Показать сообщения:    

    Отличница через торрент
    Скачать бесплатно Отличница
    Отличница скачать торрент
    Отличница смотреть онлайн
    Cкачать фильм Отличница бесплатно
    Отличница скачать торрент в хорошем качестве
    Отличница смотреть онлайн бесплатно в хорошем качестве


    Вы не можете начинать темы
    Вы не можете отвечать на сообщения
    Вы не можете редактировать свои сообщения
    Вы не можете удалять свои сообщения
    Вы не можете голосовать в опросах
    Вы не можете прикреплять файлы к сообщениям
    Вы можете скачивать файлы