Доктор Стрэндж

Лицензия

Добыча

MVO

Дом дракона

1 сезон

Тор

Лицензия

Мэверик

Лицензия

Там, где раки поют

MVO

Властелин колец

1 сезон

Ultimate

pack

Рекомендуем

30

Repack

ВАЖНО

ВАЖНО

Ghostwire

RePack

jed

RePack

nioh2

RePack

RDR2

RePack

NEED FOR SPEED™ PAYBACK

RePack

скачать торрент

Кинопоиск HD

Острые козырьки 6 сезон

6 сезон

FAR CRY 6

RePack

скачать торрент

Лицензия

скачать торрент

MVO

1

1 сезон

скачать торрент

1 сезон

скачать торрент

Лицензия

  

Лучшие враги / Сезон: 1 / Серии: 1-30 из 30 (Богдан Дробязко) [2014, Криминал, детектив, HDTV 1080i]

Лучшие враги через торрент pb.wtf

Размер: 87.98 GB | Добавлен: 3 года 7 мес. назад | Торрент скачан:19 раз
Смотреть онлайн | Скачать   

14-02-2019 04:52 Лучшие враги Скачать торрент  

Лучшие враги Год выпуска: 2014
Страна: Россия
Жанр: Криминал, детектив
Продолжительность: ~ 00:45:00
Перевод: Не требуется
Субтитры: отсутствуют

Режиссер: Богдан Дробязко



В ролях:

Алексей Нилов, Сергей Селин, Вера Сотникова, Андрей Зибров, Сергей Апрельский, Анна Табанина, Алексей Фокин, Андрей Гульнев, Вячеслав Коробицин, Константин Кайнов, Александр Есаулов, Вадим Романов, Александр Солоненко, Валентин Кузнецов (III), Андрей Благословенский, Владимир Шагин, Денис Ворошилов, Фёдор Прожога, Александр Берг, Вячеслав Гасай, Юлия Скороход, Никита Чеканов, Сергей Галич, Дмитрий Лебедев, Алексей Белозерцев, Денис Горин, Вячеслав Железняков, Евгения Игумнова, Надежда Рязанцева, Ирина Обрезкова, Алексей Козлов (V)

Описание:

Главные герои этого сериала - Глеб Данилов, подполковник, начальник оперативно-розыскной группы ГУВД, и Владимир Старыгин, тоже подполковник, начальник аналитической группы. Два начальника, два опытных работника – они друг друга недолюбливают. Данилов – простой мужик, через три слова мат, через два – рюмка. Старыгин – интеллигент, аристократ. Данилов, хоть и подполковник, ночами сидит с операми в засаде, спит в кабинете на стульях. Оперов любит по-отцовски, старается их прикрывать, если кто проколется. Подчиненные к нему, соответственно относятся, что называется, – в огонь и в воду. Старыгин сидит в уютном офисе в окружении трех сотрудников.

Качество: HDTV 1080i
Формат: TS

Видео: 1920х1080 (16:9), 25 fps, AVC MPEG-4 (x264), [email protected] ~ 8500 kbps , 0.161 bit/pixel
Аудио: Русский (AC3, 6 ch, 448 Кбит/с),(MP2, 2 ch, 192 Кбит/с)
скриншот  скриншот  скриншот  

Общее
Идентификатор : 1 (0x1)
Полное имя : F:\Фильмы торренты\Luchshie.vragi.2014.HDTV.(1080i).Nikolspup\Luchshie.vragi.(01.seriya.iz.30).2014.HDTV.(1080i).Nikolspup.ts
Формат : MPEG-TS
Размер файла : 3,05 Гбайт
Продолжительность : 45 м. 57 с.
Режим общего битрейта : Переменный
Общий поток : 9485 Кбит/сек

Видео
Идентификатор : 3531 (0xDCB)
Идентификатор меню : 17013 (0x4275)
Формат : AVC
Формат/Информация : Advanced Video Codec
Профиль формата : [email protected]
Параметр CABAC формата : Да
Параметр ReFrames формата : 4 кадра
Идентификатор кодека : 27
Продолжительность : 45 м. 57 с.
Битрейт : 8370 Кбит/сек
Ширина : 1920 пикселей
Высота : 1080 пикселей
Соотношение сторон : 16:9
Частота кадров : 25,000 кадров/сек
Цветовое пространство : YUV
Субдискретизация насыщенности : 4:2:0
Битовая глубина : 8 бит
Тип развёртки : Чересстрочная
Метод сохранения типа развёртки : Раздельные поля
Порядок развёртки : Верхнее поле первое
Бит/(Пиксели*Кадры) : 0.161
Размер потока : 2,69 Гбайт (88%)
Цветовой диапазон : Limited
Основные цвета : BT.709
Характеристики трансфера : BT.709
Коэффициенты матрицы : BT.709

Аудио #1
Идентификатор : 3532 (0xDCC)
Идентификатор меню : 17013 (0x4275)
Формат : AC-3
Формат/Информация : Audio Coding 3
Расширение режима : CM (complete main)
Параметр Endianness формата : Big
Идентификатор кодека : 6
Продолжительность : 45 м. 57 с.
Вид битрейта : Постоянный
Битрейт : 448 Кбит/сек
Каналы : 6 каналов
Расположение каналов : Front: L C R, Side: L R, LFE
Частота : 48,0 КГц
Частота кадров : 31,250 кадров/сек (1536 spf)
Метод сжатия : С потерями
Размер потока : 147 Мбайт (5%)
Язык : Russian

Аудио #2
Идентификатор : 3533 (0xDCD)
Идентификатор меню : 17013 (0x4275)
Формат : MPEG Audio
Версия формата : Version 1
Профиль формата : Layer 2
Идентификатор кодека : 3
Продолжительность : 45 м. 57 с.
Вид битрейта : Постоянный
Битрейт : 192 Кбит/сек
Каналы : 2 канала
Частота : 48,0 КГц
Метод сжатия : С потерями
Размер потока : 63,1 Мбайт (2%)
Язык : Russian




Скачать Лучшие враги через торрент http://i87.fastpic.ru/big/2016/1225/41/968013ef4a38ffb34f8bc32f350ef941.jpg Скачать, смотреть онлайн Лучшие враги бесплантно в хорошем качестве Описание: Главные герои этого сериала - Глеб Данилов, подполковник, начальник оперативно-розыскной группы ГУВД, и Владимир Старыгин, тоже ... 7.8 10 4
Info! Золотая раздача, скачанное не засчитывается.
Торрент: Зарегистрирован [2019-02-14 04:52] · скачан: 19 раз
Статус: √ проверено
Размер: 87.98 GB
Как cкачать? Как скачать Лучшие враги через торрент | UTorrent

% Раздел Тема Автор DL S | L
Наши сериалы [ 17.06 GB ] Лучшие враги / Сезон: 1 / Серии: 1-30 из 30 | | WEBRip bober100 Скачать
1 | 0
Наши сериалы [ 16.97 GB ] Лучшие враги / Сезон: 1 / Серии: 1-30 из 30 | | WEBRip-AVC bober100 Скачать
1 | 0
Наши сериалы [ 16.1 GB ] Лучшие враги / Сезон: 1 / Серии 1-30 из 30 | Лучшие враги / Сезон: 1 / Серии 1-30 из 30 | SATRip GEKADOL Скачать
1 | 0

28-11-2019 20:33  


Отключить вcю реклaмy на сайте, в т.ч. и в плеере онлайн просмотра!

    Дорогой пользователь! Огромная просьба, поблагодарите релизера, оцените раздачу и оставьте свои комментарий, если Вы скачали Лучшие враги через торрент бесплатно!!
    Комментировать посты могут только пользователи прошедшие не сложную регистрацию
    Показать сообщения:    


    Лучшие враги через торрент
    Скачать бесплатно Лучшие враги
    Лучшие враги скачать торрент
    Лучшие враги смотреть онлайн
    Cкачать фильм Лучшие враги бесплатно
    Лучшие враги скачать торрент в хорошем качестве
    Лучшие враги смотреть онлайн бесплатно в хорошем качестве
    Вы не можете начинать темы
    Вы не можете отвечать на сообщения
    Вы не можете редактировать свои сообщения
    Вы не можете удалять свои сообщения
    Вы не можете голосовать в опросах
    Вы не можете прикреплять файлы к сообщениям
    Вы можете скачивать файлы