новый адрес пиратбит piratbit
Мега распродажа FORZA HORIZON 4 ULTIMATE+ВСЕ DLC+ОНЛАЙН всего за 499р. 349 руб. (супер цена). Внимание количество ограничено!!!

iTunes

1+1

iTunes

мы

iTunes

1

iTunes

Чернобыль

iTunes

Ральф против интернета

Лицензия

ПШазам

Лицензия

Игра престолов

Лицензия

30
pack

ВАЖНО

!!Акция!!

Alien_RageХит недели

RePack

Resident Evil 21

ИГРА 18+

pack

RePack

Metro:Exodus

!!Акция!!

Alien_Rage

RePack

fifa19

RePack

Assassins Creed: Odyssey

RePack

NEED FOR SPEED™ PAYBACK

3 сезон

9 сезон

Бесстыжие 9 сезон

Все сериалы

все сериалы на PB.wtf

RePack

FAR CRY 5
Ребята, катастрофически не хватает 1900р. для оплаты серверов за Октябрь (всвязи с блокировками трафик упал в 3 раза), 1-2р., выручайте.
  

Ход конём (Татьяна Лукашевич) [1962, СССР, комедия, SATRip от AVP Studio] pb.wtf

Ход конём через торрент pb.wtf

Размер: 1.09 GB | Добавлен: 9 мес. назад | Торрент скачан:8 раз
Скачать  

14-02-2019 08:55 Ход конём Скачать торрент  

Ход конём
Страна: СССР
Производство: Мосфильм

Жанр: комедия
Год выпуска: 1962
Продолжительность: 01:17:37

Перевод: Не требуется
Cубтитры: нет
Оригинальная аудиодорожка: русский

Режиссер: Татьяна Лукашевич

В ролях:
Борис Кузнецов, Савелий Крамаров, Афанасий Кочетков, Михаил Пуговкин, Анатолий Папанов, Татьяна Пельтцер, Виктор Хохряков, Станислав Чекан, Вадим Грачёв, Николай Бармин, Юрий Белов, Виктор Гераскин...
Об актёрах подробней

Описание:
По мотивам повести Михаила Жестева "Приключения маленького тракториста".
Пятнадцатилетний Алёшка Лёвшин, мечтающий стать таким же классным трактористом, как передовик Шугай, из-за возраста не допускается к работам в колхозе, где он намерен прожить всю жизнь. Но у него есть взрослый друг - прицепщик Колька Лопатин, который давно мечтает о беззаботной городской жизни. Лешка идет на безобидную хитрость - и по документам друга поступает в училище механизаторов, а Колька едет в город к Лешкиному дяде...

Исходник: DVB
Качество видео: SATRip
Формат видео: AVI

Видео: 704x528 (4:3), 25,000 кадров/сек, XviD ~ 1807 kbps avg, 0.194 bit/pixel
Аудио: 48 kHz, Dolby Digital AC3 2.0, 192 kbps

Раздача от:
Общее
Полное имя : Hod.konyom.1962.SATRip_[New-team]_by_AVP_Studio.avi
Формат : AVI
Формат/Информация : Audio Video Interleave
Размер файла : 1,09 Гбайт
Продолжительность : 1 ч. 17 м.
Общий поток : 2009 Кбит/сек
Программа кодирования : VirtualDubMod 1.5.10.3 | www.virtualdub-fr.org || (build 2550/release)
Библиотека кодирования : VirtualDubMod build 2550/release

Видео
Идентификатор : 0
Формат : MPEG-4 Visual
Профиль формата : Advanced Simple@L5
Настройки формата : BVOP1 / Custom Matrix
Параметр BVOP формата : 1
Параметр QPel формата : Нет
Параметр GMC формата : Без точки перехода
Параметр матрицы формата : Выборочная
Идентификатор кодека : XVID
Идентификатор кодека/Подсказка : XviD
Продолжительность : 1 ч. 17 м.
Битрейт : 1807 Кбит/сек
Ширина : 704 пикселя
Высота : 528 пикселей
Соотношение сторон : 4:3
Частота кадров : 25,000 кадров/сек
Цветовое пространство : YUV
Субдискретизация насыщенности : 4:2:0
Битовая глубина : 8 бит
Тип развёртки : Прогрессивная
Метод сжатия : С потерями
Бит/(Пиксели*Кадры) : 0.194
Размер потока : 1003 Мбайт (90%)
Библиотека кодирования : XviD 73

Аудио
Идентификатор : 1
Формат : AC-3
Формат/Информация : Audio Coding 3
Коммерческое название : Dolby Digital
Идентификатор кодека : 2000
Продолжительность : 1 ч. 17 м.
Вид битрейта : Постоянный
Битрейт : 192 Кбит/сек
Каналы : 2 канала
Channel layout : L R
Частота : 48,0 КГц
Частота кадров : 31,250 кадров/сек (1536 SPF)
Битовая глубина : 16 бит
Метод сжатия : С потерями
Размер потока : 107 Мбайт (10%)
Выравнивание : Разделение по промежуткам
Продолжительность промежутка : 40 мс. (1,00 видеокадр)
Время предзагрузки промежутка : 500 мс
pb.wtf



Скачать Ход конём через торрент http://picplus.ru/img/1902/14/dc7f3d5e.png Скачать фильм Ход конём через торрент бесплантно в хорошем качестве Описание:По мотивам повести Михаила Жестева "Приключения маленького тракториста".Пятнадцатилетний Алёшка Лёвшин, мечтающий стать таким же ... 8 10 1
Торрент: Зарегистрирован [2019-02-14 08:55] · скачан: 8 раз
Статус: √ проверено
Размер: 1.09 GB
Как cкачать? Как скачать Ход конём через торрент | qTorrent

% Раздел Тема Автор DL S | L
Кино СССР [ 1.09 GB ] Ход конём [1962 СССР SATRip-AVC от AVP Studio] AVP Studio Скачать
1 | 0
Наши Мультфильмы (HD, WEB-DL 720p, 1080p) [ 3.85 GB ] Три богатыря: Ход конем [2014 мультфильм BDRip 720p] Newton5 Скачать
1 | 0
Наши мультфильмы [ 700 MB ] Три богатыря: Ход конем [2014 мультфильм HDRip] Newton5 Скачать
1 | 0
3D Мультфильмы [ 5.4 GB ] Три богатыря: Ход конем [2014 Мультфильм BDrip 1080p] OverUnder / Вертикальная стереопара serega768 Скачать
1 | 0
Наши Мультфильмы (HD, WEB-DL 720p, 1080p) [ 16.56 GB ] Три богатыря: Ход Конем [2014 Мультфильм полнометражный Blu-ray Оригинал] Бумер Скачать
1 | 0
Наши Мультфильмы (HD, WEB-DL 720p, 1080p) [ 7.03 GB ] Три богатыря: Ход конем [2014 мультфильм BDRip 1080p] Original Seedtank Скачать
1 | 0
Наши мультфильмы [ 1.37 GB ] Три богатыря: Ход Конем [2014 Мультфильм полнометражный BDRip] Оригинал Бумер Скачать
2 | 0


>> Регистрируемся здесь <<






Отзывы и комментарии о схеме читаем и пишем здесь: ---> Отзывы и комментарии о схеме

Новые благодарочки в телеграм довольных пользователей:
скриншот   скриншот   скриншот   скриншот   скриншот
    Дорогой пользователь! Огромная просьба, поблагодарите релизера, оцените раздачу и оставьте свои комментарий, если Вы скачали Ход конём через торрент бесплатно! Внесите свою лепту в развитие PiratBit!
    Комментировать посты могут только пользователи прошедшие не сложную регистрацию
    Показать сообщения:    

    Ход конём через торрент
    Скачать бесплатно Ход конём
    Ход конём скачать торрент
    Ход конём смотреть онлайн
    Cкачать фильм Ход конём бесплатно
    Ход конём скачать торрент в хорошем качестве
    Ход конём смотреть онлайн бесплатно в хорошем качестве


    Вы не можете начинать темы
    Вы не можете отвечать на сообщения
    Вы не можете редактировать свои сообщения
    Вы не можете удалять свои сообщения
    Вы не можете голосовать в опросах
    Вы не можете прикреплять файлы к сообщениям
    Вы можете скачивать файлы