Ссылка на приватное зеркало всего за 1$. Внимание количество ограничено!!!

OK

1+1

iTunes

мы

OK

1

WEB-DLRip

Джокер

Пифагор

Ведьмак / The Witcher сериал

iTunes

ПШазам

ОК

Оно 2

iTunes

30
pack

Вам бонус

ВАЖНО

!!Акция!!

Alien_RageХит недели

RePack

Resident Evil 21

ИГРА 18+

pack

RePack

jed

RePack

fifa19

RePack

Assassins Creed: Odyssey

RePack

NEED FOR SPEED™ PAYBACK

4 сезон

9 сезон

Бесстыжие 9 сезон

Все сериалы

все сериалы на PB.wtf

RePack

FAR CRY 5
  

Последняя миссия / Attrition / Final Mission (Матье Вешлер) [2018, Боевик, драма, HDRip] MVO [iTunes] pb.wtf

Последняя миссия через торрент pb.wtf

Раздают: 1 [ 0 KB/s ]
Размер: 1.45 GB | Добавлен: 11 мес. назад | Торрент скачан:139 раз
Скачать  

14-02-2019 12:30 Последняя миссия Скачать торрент  

Последняя миссия / Attrition / Final Mission Год выпуска: 2018
Страна: Таиланд, Гонконг, Великобритания, США
Жанр: Боевик, драма
Продолжительность: 01:25:12
Перевод: Профессиональный (многоголосый) | iTunes
Субтитры: отсутствуют

Режиссер: Матье Вешлер

rating

В ролях:

Стивен Сигал, Руди Янгблад, Витхая Пансрингарм, Луис Фань, Кат Инккарат, Джеймс П. Беннетт, Байра Бела, Чарли Юн, Танапол Чуксридаю, Юй Кан

Описание:

Бывший спецназовец, вышедший на покой, решает собрать свою команду в последний раз, чтобы спасти тайскую девушку с необычными способностями, которую похитил криминальный босс.

Качество: HDRip
Формат: AVI

Видео: Xvid 73, 720x304, ~2227 kbps, 23,976 fps
Аудио: русский, AC3, 2.0 ch, 48 kHz, 192 kbps | iTunes
скриншот   скриншот   скриншот   скриншот  

General
Полное имя : E:TorrentAttritionHDRip.avi
Формат : AVI
Формат/Информация : Audio Video Interleave
Профиль формата : OpenDML
Размер файла : 1.45 GiB
Продолжительность : 1 h 25 min
Общий поток : 2 431 kb/s
Программа кодирования : XviD4PSP 6.0 / 54.27.101

Video
Идентификатор : 0
Формат : MPEG-4 Visual
Профиль формата : Advanced Simple@L5
Настройки формата : BVOP2 / Custom Matrix
Параметр BVOP формата : 2
Параметр QPel формата : No
Параметр GMC формата : No warppoints
Параметр матрицы формата : Custom
Идентификатор кодека : XVID
Идентификатор кодека/Подсказка : XviD
Продолжительность : 1 h 25 min
Битрейт : 2 227 kb/s
Ширина : 720 pixels
Высота : 304 pixels
Соотношение сторон : 2.35:1
Частота кадров : 23.976 (23976/1000) FPS
Цветовое пространство : YUV
Субдискретизация насыщенности : 4:2:0
Битовая глубина : 8 bits
Тип развёртки : Progressive
Метод сжатия : Lossy
Бит/(Пиксели*Кадры) : 0.424
Размер потока : 1.33 GiB (92%)
Библиотека кодирования : XviD 73

Audio
Идентификатор : 1
Формат : AC-3
Формат/Информация : Audio Coding 3
Идентификатор кодека : 2000
Продолжительность : 1 h 25 min
Вид битрейта : Constant
Битрейт : 192 kb/s
Каналы : 2 channels
Расположение каналов : Front: L R
Частота : 48.0 kHz
Частота кадров : 31.250 FPS (1536 SPF)
Битовая глубина : 16 bits
Метод сжатия : Lossy
Размер потока : 117 MiB (8%)
Выравнивание : Aligned on interleaves
Продолжительность промежутка : 32 ms (0.77 video frame)

pb.wtf



Скачать Последняя миссия через торрент http://pic1.kartinco.top/images/12/4kz7v.jpg Скачать фильм Последняя миссия через торрент бесплантно в хорошем качестве Описание: Бывший спецназовец, вышедший на покой, решает собрать свою команду в последний раз, чтобы спасти тайскую девушку с необычными ... 8.2 10 12
Торрент: Зарегистрирован [2019-02-14 12:30] · скачан: 139 раз
Статус: √ проверено
Размер: 1.45 GB
Как cкачать? Как скачать Последняя миссия через торрент | qTorrent

% Раздел Тема Автор DL S | L
Фильмы 2018 [DVDrip, WEB-DLRip, HDrip] (DUB, MVO) [ 2 GB ] Последняя миссия / Attrition / Final Mission [2018 HDRip-AVC] MVO bober100 Скачать
1 | 0

28-11-2019 20:33  

Отключить всю рекламу на сайте

    Дорогой пользователь! Огромная просьба, поблагодарите релизера, оцените раздачу и оставьте свои комментарий, если Вы скачали Последняя миссия через торрент бесплатно! Внесите свою лепту в развитие PiratBit!
    Комментировать посты могут только пользователи прошедшие не сложную регистрацию
    Показать сообщения:    

    Последняя миссия через торрент
    Скачать бесплатно Последняя миссия
    Последняя миссия скачать торрент
    Последняя миссия смотреть онлайн
    Cкачать фильм Последняя миссия бесплатно
    Последняя миссия скачать торрент в хорошем качестве
    Последняя миссия смотреть онлайн бесплатно в хорошем качестве


    Вы не можете начинать темы
    Вы не можете отвечать на сообщения
    Вы не можете редактировать свои сообщения
    Вы не можете удалять свои сообщения
    Вы не можете голосовать в опросах
    Вы не можете прикреплять файлы к сообщениям
    Вы можете скачивать файлы