Ссылка на приватное зеркало всего за 1$. Внимание количество ограничено!!!

iTunes

iTunes

iTunes

1

iTunes

iTunes

iTunes

iTunes

iTunes

30
pack

$ от Little Big

ВАЖНО

!!Акция!!

Alien_RageХит недели

RePack

Resident Evil 21

ИГРА 18+

pack

RePack

jed

!!Акция!!

Alien_Rage

RePack

fifa19

RePack

Assassins Creed: Odyssey

RePack

NEED FOR SPEED™ PAYBACK

4 сезон

9 сезон

Бесстыжие 9 сезон

Все сериалы

все сериалы на PB.wtf

RePack

FAR CRY 5
  

Неслучайная встреча / Серии: 1-8 из 8 (Иван Китаев) [2014, Детектив, WEBRip] pb.wtf

Неслучайная встреча через торрент pb.wtf

Размер: 4.35 GB | Добавлен: 1 год 4 мес. назад | Торрент скачан:106 раз
Скачать  

14-02-2019 13:02 Неслучайная встреча Скачать торрент  

Неслучайная встреча Год выпуска: 2014
Страна: Россия
Жанр: Детектив
Продолжительность: ~ 00:50:00
Перевод: Не требуется
Субтитры: отсутствуют

Режиссер: Иван Китаев



В ролях:

Владимир Яглыч, Анна Чиповская, Виталий Хаев, Андрей Мерзликин, Кирилл Плетнёв, Светлана Устинова, Олег Алмазов, Виктор Бычков, Денис Синявский, Сергей Барковский, Алексей Ведерников, Светлана Письмиченко, Михаил Самочко, Владимир Селезнёв, Оксана Базилевич, Светлана Смирнова-Марцинкевич, Елена Карпова, Сергей Колос, Екатерина Тарасова

Описание:

Бывший легионер, Серж Лежен, он же Сергей Лежнев, работает медбратом в бригаде скорой помощи, и мечтает найти свою мать, о которой ничего не слышал вот уже тринадцать лет. Однажды, по долгу службы оказавшись на месте убийства, Серж «мимоходом» помогает полиции в раскрытии запутанного преступления. Проявив неординарные аналитические способности, герой вызывает к себе настороженный интерес не только у полиции… Кроме того, участие в этих расследованиях отвлекает его от личной жизни — его отношения с Маргаритой никак не складываются. Он делает все для того, чтобы вновь увидеть свою мать. И вот, когда момент встречи с ней кажется, близок, что-то опять препятствует этому. Что же мешает их встрече?

Качество: WEBRip
Формат: AVI

Видео: XviD build 73, 720x400 (16:9), 25.000 fps, ~ 1380 Kbps (~ 0.190 bit/pixel)
Аудио: 48.0 kHz, AC3, 2/0 ch, 192 kbps
скриншот  скриншот  скриншот  скриншот  скриншот  

General
Complete name : D:RazdachiNesluchajnaia.Vstrecha.2014.WEBRip.GeneralFilmNesluchajnaia.Vstrecha.e01.avi
Format : AVI
Format/Info : Audio Video Interleave
File size : 557 MiB
Duration : 49 min 13 s
Overall bit rate : 1 583 kb/s
Writing application : VirtualDubMod 1.5.10.3 | www.virtualdub-fr.org || (build 2550/release)
Writing library : VirtualDubMod build 2550/release

Video
ID : 0
Format : MPEG-4 Visual
Format profile : Advanced Simple@L5
Format settings : BVOP1 / Custom Matrix
Format settings, BVOP : 1
Format settings, QPel : No
Format settings, GMC : No warppoints
Format settings, Matrix : Custom
Codec ID : XVID
Codec ID/Hint : XviD
Duration : 49 min 13 s
Bit rate : 1 381 kb/s
Width : 720 pixels
Height : 400 pixels
Display aspect ratio : 16:9
Frame rate : 25.000 FPS
Color space : YUV
Chroma subsampling : 4:2:0
Bit depth : 8 bits
Scan type : Progressive
Compression mode : Lossy
Bits/(Pixel*Frame) : 0.192
Stream size : 486 MiB (87%)
Writing library : XviD 73

Audio
ID : 1
Format : AC-3
Format/Info : Audio Coding 3
Commercial name : Dolby Digital
Codec ID : 2000
Duration : 49 min 13 s
Bit rate mode : Constant
Bit rate : 192 kb/s
Channel(s) : 2 channels
Channel layout : L R
Sampling rate : 48.0 kHz
Frame rate : 31.250 FPS (1536 SPF)
Bit depth : 16 bits
Compression mode : Lossy
Stream size : 67.6 MiB (12%)
Alignment : Split accross interleaves
Interleave, duration : 40 ms (1.00 video frame)
Interleave, preload duratio : 500 ms
Service kind : Complete Main

Когда раздача ведётся путём добавления новых серий, при каждом добавлении создётся новый торрент. Чтобы начать докачку новой серии, пользователям необходимо сделать следующее:
(1) остановить скачивание,
(2) удалить старый торрент у себя из клиента (старые серии удалять не надо),
(3) скачать новый торрент и запустить его у себя в клиенте вместо старого, при этом указать клиенту путь в старую папку, куда и должно происходить скачивание новых серий.
Ваш клиент при этом должен произвести хеширование (проверку) старой папки (если не производит сам - помогите ему сделать это), и будет докачивать только те серии, которых у вас ещё нет. Старые серии при этом не удаляются, а продолжают раздаваться!
Eсли вы уже удалили старые серии, то предотвратить повторную закачку старых серий можно, отжав галочку в соответсвующих местах при запуске нового торрента. По возможности, желательно не удалять старые серии как можно дольше, чтобы релизер не столько продолжал раздавать старые серии, а смог сконцентрироваться на новых.
pb.wtf



Скачать Неслучайная встреча через торрент https://st.kp.yandex.net/images/film_iphone/iphone360_815133.jpg Скачать фильм Неслучайная встреча через торрент бесплантно в хорошем качестве Описание: Бывший легионер, Серж Лежен, он же Сергей Лежнев, работает медбратом в бригаде скорой помощи, и мечтает найти свою мать, о ... 10 10 4
Торрент: Зарегистрирован [2019-02-14 17:21] · скачан: 106 раз
Статус: √ проверено
Размер: 4.35 GB
Как cкачать? Как скачать Неслучайная встреча через торрент | qTorrent

% Раздел Тема Автор DL S | L
Наши сериалы [ 4.61 GB ] Неслучайная встреча / Марсель / Серии: 1-8 из 8 [2014 IPTVRip] lug30 Скачать
1 | 0

28-11-2019 20:33  

Отключить всю рекламу на сайте

    Дорогой пользователь! Огромная просьба, поблагодарите релизера, оцените раздачу и оставьте свои комментарий, если Вы скачали Неслучайная встреча через торрент бесплатно! Внесите свою лепту в развитие PiratBit!
    Комментировать посты могут только пользователи прошедшие не сложную регистрацию
    Показать сообщения:    

    Неслучайная встреча через торрент
    Скачать бесплатно Неслучайная встреча
    Неслучайная встреча скачать торрент
    Неслучайная встреча смотреть онлайн
    Cкачать фильм Неслучайная встреча бесплатно
    Неслучайная встреча скачать торрент в хорошем качестве
    Неслучайная встреча смотреть онлайн бесплатно в хорошем качестве


    Вы не можете начинать темы
    Вы не можете отвечать на сообщения
    Вы не можете редактировать свои сообщения
    Вы не можете удалять свои сообщения
    Вы не можете голосовать в опросах
    Вы не можете прикреплять файлы к сообщениям
    Вы можете скачивать файлы