новый адрес
Ссылка на приватное зеркало всего за 1$. Внимание количество ограничено!!!

iTunes

1+1

iTunes

мы

WEB-DL

1

iTunes

Чернобыль

iTunes

Ральф против интернета

Лицензия

ПШазам

Лицензия

Оно 2

Лицензия

30
pack

Вам бонус

ВАЖНО

!!Акция!!

Alien_RageХит недели

RePack

Resident Evil 21

ИГРА 18+

pack

RePack

jed

!!Акция!!

Alien_Rage

RePack

fifa19

RePack

Assassins Creed: Odyssey

RePack

NEED FOR SPEED™ PAYBACK

3 сезон

9 сезон

Бесстыжие 9 сезон

Все сериалы

все сериалы на PB.wtf

RePack

FAR CRY 5
Ребята, катастрофически не хватает 1900р. для оплаты серверов за Октябрь (всвязи с блокировками трафик упал в 3 раза), 1-2р., выручайте.
  

Последняя миссия / Attrition / Final Mission (Матье Вешлер) [2018, Боевик, драма, HDRip-AVC] MVO [iTunes] pb.wtf

Последняя миссия через торрент pb.wtf

Размер: 2 GB | Добавлен: 9 мес. назад | Торрент скачан:118 раз
Скачать  

14-02-2019 13:17 Последняя миссия Скачать торрент  

Последняя миссия / Attrition / Final Mission Год выпуска: 2018
Страна: Таиланд, Гонконг, Великобритания, США
Жанр: Боевик, драма
Продолжительность: 01:25:12
Перевод: Профессиональный (многоголосый) | iTunes
Субтитры: отсутствуют

Режиссер: Матье Вешлер

rating

В ролях:

Стивен Сигал, Руди Янгблад, Витхая Пансрингарм, Луис Фань, Кат Инккарат, Джеймс П. Беннетт, Байра Бела, Чарли Юн, Танапол Чуксридаю, Юй Кан

Описание:

Бывший спецназовец, вышедший на покой, решает собрать свою команду в последний раз, чтобы спасти тайскую девушку с необычными способностями, которую похитил криминальный босс.

Качество: HDRip-AVC
Формат: MKV

Видео: MPEG-4 AVC, 1156x492, 2721 kbps, 23,976 fps
Аудио#1: русский, AC3, 2.0 ch, 48 kHz, 192 kbps | iTunes
Аудио#2: английский, AC3, 5.1 ch, 48 kHz, 448 kbps
скриншот   скриншот   скриншот   скриншот  

General
Уникальный идентификатор : 223352550366890778691268467761739503635 (0xA80822F10DB5AE32B130B770134C9813)
Полное имя : E:TorrentAttritionHDRipAVC.mkv
Формат : Matroska
Версия формата : Version 4 / Version 2
Размер файла : 2.00 GiB
Продолжительность : 1 h 25 min
Общий поток : 3 361 kb/s
Дата кодирования : UTC 2019-02-13 19:43:18
Программа кодирования : mkvmerge v9.5.0 ('Quiet Fire') 64bit
Библиотека кодирования : libebml v1.3.4 + libmatroska v1.4.5

Video
Идентификатор : 1
Формат : AVC
Формат/Информация : Advanced Video Codec
Профиль формата : High@L4.1
Настройки формата : CABAC / 12 Ref Frames
Параметр CABAC формата : Yes
Параметр RefFrames формата : 12 frames
Идентификатор кодека : V_MPEG4/ISO/AVC
Продолжительность : 1 h 25 min
Битрейт : 2 721 kb/s
Ширина : 1 156 pixels
Высота : 492 pixels
Соотношение сторон : 2.35:1
Режим частоты кадров : Constant
Частота кадров : 23.976 (24000/1001) FPS
Цветовое пространство : YUV
Субдискретизация насыщенности : 4:2:0
Битовая глубина : 8 bits
Тип развёртки : Progressive
Бит/(Пиксели*Кадры) : 0.200
Размер потока : 1.62 GiB (81%)
Библиотека кодирования : x264 core 157 r2935 545de2f
Настройки программы : cabac=1 / ref=12 / deblock=1:-2:-2 / analyse=0x3:0x133 / me=umh / subme=11 / psy=1 / psy_rd=1.00:0.00 / mixed_ref=1 / me_range=32 / chroma_me=1 / trellis=2 / 8x8dct=1 / cqm=0 / deadzone=21,11 / fast_pskip=0 / chroma_qp_offset=-2 / threads=9 / lookahead_threads=2 / sliced_threads=0 / nr=0 / decimate=0 / interlaced=0 / bluray_compat=0 / constrained_intra=0 / bframes=14 / b_pyramid=2 / b_adapt=2 / b_bias=0 / direct=3 / weightb=1 / open_gop=0 / weightp=2 / keyint=240 / keyint_min=24 / scenecut=40 / intra_refresh=0 / rc_lookahead=120 / rc=2pass / mbtree=0 / bitrate=2721 / ratetol=1.0 / qcomp=0.70 / qpmin=0 / qpmax=69 / qpstep=4 / cplxblur=20.0 / qblur=0.5 / vbv_maxrate=50000 / vbv_bufsize=62500 / nal_hrd=none / filler=0 / ip_ratio=1.40 / pb_ratio=1.30 / aq=1:1.00
Язык : English
Default : Yes
Forced : No
Цветовой диапазон : Limited
Основные цвета : BT.709
Характеристики трансфера : BT.709
Коэффициенты матрицы : BT.709

Audio #1
Идентификатор : 2
Формат : AC-3
Формат/Информация : Audio Coding 3
Идентификатор кодека : A_AC3
Продолжительность : 1 h 25 min
Вид битрейта : Constant
Битрейт : 192 kb/s
Каналы : 2 channels
Расположение каналов : Front: L R
Частота : 48.0 kHz
Частота кадров : 31.250 FPS (1536 SPF)
Битовая глубина : 16 bits
Метод сжатия : Lossy
Размер потока : 117 MiB (6%)
Язык : Russian
Default : Yes
Forced : No

Audio #2
Идентификатор : 3
Формат : AC-3
Формат/Информация : Audio Coding 3
Идентификатор кодека : A_AC3
Продолжительность : 1 h 25 min
Вид битрейта : Constant
Битрейт : 448 kb/s
Каналы : 6 channels
Расположение каналов : Front: L C R, Side: L R, LFE
Частота : 48.0 kHz
Частота кадров : 31.250 FPS (1536 SPF)
Битовая глубина : 16 bits
Метод сжатия : Lossy
Размер потока : 273 MiB (13%)
Язык : English
Default : No
Forced : No

Menu
00:00:00.000 : :(01)00:00:00:000
00:05:42.050 : :(02)00:05:42:050
00:10:31.339 : :(03)00:10:31:339
00:14:46.135 : :(04)00:14:46:135
00:20:56.338 : :(05)00:20:56:338
00:24:30.677 : :(06)00:24:30:677
00:30:35.542 : :(07)00:30:35:542
00:39:01.547 : :(08)00:39:01:547
00:46:13.437 : :(09)00:46:13:437
00:52:18.218 : :(10)00:52:18:218
00:57:31.656 : :(11)00:57:31:656
01:02:13.104 : :(12)01:02:13:104
01:05:50.363 : :(13)01:05:50:363
01:10:24.970 : :(14)01:10:24:970
01:16:47.644 : :(15)01:16:47:644
01:21:26.715 : :(16)01:21:26:715

pb.wtf



Скачать Последняя миссия через торрент http://pic1.kartinco.top/images/12/4kz7v.jpg Скачать фильм Последняя миссия через торрент бесплантно в хорошем качестве Описание: Бывший спецназовец, вышедший на покой, решает собрать свою команду в последний раз, чтобы спасти тайскую девушку с необычными ... 8.9 10 8
Info! Золотая раздача, скачанное не засчитывается.
Торрент: Зарегистрирован [2019-02-14 13:17] · скачан: 118 раз
Статус: √ проверено
Размер: 2 GB
Как cкачать? Как скачать Последняя миссия через торрент | qTorrent

% Раздел Тема Автор DL S | L
Фильмы 2018 [DVDrip, WEB-DLRip, HDrip] (DUB, MVO) [ 1.45 GB ] Последняя миссия / Attrition / Final Mission [2018 HDRip] MVO bober100 Скачать
1 | 0

28-11-2019 20:33  

Отключить всю рекламу на сайте

14-02-2019 13:36 Последняя миссия Скачать торрент  

bober100 писал(а):

Стивен Сигал

когда уже последний фильм)) скатился в такой треш, а когда-то было интересно его смотреть.pb.wtf



14-02-2019 16:24 Последняя миссия Скачать торрент  

Ворон писал(а):

bober100 писал(а):

Стивен Сигал

когда уже последний фильм)) скатился в такой треш, а когда-то было интересно его смотреть.

согласен, есть такоеpb.wtf



14-02-2019 17:09 Последняя миссия Скачать торрент  

я думал он уж давно помер pb.wtf



    Дорогой пользователь! Огромная просьба, поблагодарите релизера, оцените раздачу и оставьте свои комментарий, если Вы скачали Последняя миссия через торрент бесплатно! Внесите свою лепту в развитие PiratBit!
    Комментировать посты могут только пользователи прошедшие не сложную регистрацию
    Показать сообщения:    

    Последняя миссия через торрент
    Скачать бесплатно Последняя миссия
    Последняя миссия скачать торрент
    Последняя миссия смотреть онлайн
    Cкачать фильм Последняя миссия бесплатно
    Последняя миссия скачать торрент в хорошем качестве
    Последняя миссия смотреть онлайн бесплатно в хорошем качестве


    Вы не можете начинать темы
    Вы не можете отвечать на сообщения
    Вы не можете редактировать свои сообщения
    Вы не можете удалять свои сообщения
    Вы не можете голосовать в опросах
    Вы не можете прикреплять файлы к сообщениям
    Вы можете скачивать файлы