Ссылка на приватное зеркало всего за 1$. Внимание количество ограничено!!!

OK

1+1

iTunes

мы

OK

1

WEB-DLRip

Джокер

Пифагор

Ведьмак / The Witcher сериал

iTunes

ПШазам

ОК

Оно 2

iTunes

30
pack

Вам бонус

ВАЖНО

!!Акция!!

Alien_RageХит недели

RePack

Resident Evil 21

ИГРА 18+

pack

RePack

jed

RePack

fifa19

RePack

Assassins Creed: Odyssey

RePack

NEED FOR SPEED™ PAYBACK

4 сезон

9 сезон

Бесстыжие 9 сезон

Все сериалы

все сериалы на PB.wtf

RePack

FAR CRY 5
  

Асфальтовые джунгли / Asphaltgorillas (Детлев Бук) [2018, Боевик, драма, комедия, криминал, BDRip 720p] MVO ["Синема УС"] pb.wtf

Асфальтовые джунгли через торрент pb.wtf

Размер: 5.29 GB | Добавлен: 11 мес. назад | Торрент скачан:40 раз
Скачать  

14-02-2019 18:13 Асфальтовые джунгли Скачать торрент  

Асфальтовые джунгли / AsphaltgorillasГод выпуска: 2018
Страна: Германия
Жанр: Боевик, драма, комедия, криминал
Продолжительность: 01:44:05
Перевод: Любительский (многоголосый) | "Синема УС"
Субтитры: отсутствуют

Режиссер: Детлев Бук

rating

В ролях:

Самуэль Шнайдер, Элла Рамф, Яннис Нивёнер, Кида Рамадан, Октай Оздемир, Борхуугийн Уйзэнмаа, Стефани Гизингер, Георг Фридрих, Эрдоган Аталай

Описание:

Атрис сыт по горло тем, что является марионеткой своего босса. Он хочет заработать деньги, чтобы больше не зависеть от главаря гангстеров Эль Кейтара. Когда его друг Фрэнк предлагает выгодную для него сделку, Атрис сразу же соглашается, абсолютно не подозревая, к какому хаосу это приведет.

Качество: BDRip 720p
Формат: MKV

Видео: h.264, 6 830 Кбит/с, 1280x536
Аудио#1: Русский (AC3, 2 ch, 448 Кбит/с)
скриншот  скриншот  скриншот  

Общее
Уникальный идентификатор : 172022271030590498224882012069971014048 (0x816A48C71806CBAD917150CD7EFAB1A0)
Полное имя : D:\Asphaltgorillas.2018.P.BDRip.72Op.mkv
Формат : Matroska
Версия формата : Version 2
Размер файла : 5,29 Гбайт
Продолжительность : 1 ч. 44 м.
Режим общего битрейта : Переменный
Общий поток : 7280 Кбит/сек
Дата кодирования : UTC 2019-02-13 14:49:44
Программа кодирования : mkvmerge v8.3.0 ('Over the Horizon') 64bit
Библиотека кодирования : libebml v1.3.1 + libmatroska v1.4.2

Видео
Идентификатор : 1
Формат : AVC
Формат/Информация : Advanced Video Codec
Профиль формата : High@L4.1
Параметр CABAC формата : Да
Параметр RefFrames формата : 4 кадра
Идентификатор кодека : V_MPEG4/ISO/AVC
Продолжительность : 1 ч. 44 м.
Вид битрейта : Переменный
Битрейт : 6830 Кбит/сек
Максимальный битрейт : 7500 Кбит/сек
Ширина : 1280 пикселей
Высота : 536 пикселей
Соотношение сторон : 2,40:1
Режим частоты кадров : Постоянный
Частота кадров : 23,976 (24000/1001) кадра/сек
Стандарт вещания : Component
Цветовое пространство : YUV
Субдискретизация насыщенности : 4:2:0
Битовая глубина : 8 бит
Тип развёртки : Прогрессивная
Бит/(Пиксели*Кадры) : 0.407
Размер потока : 4,86 Гбайт (92%)
Default : Да
Forced : Нет
Цветовой диапазон : Limited
Основные цвета : BT.709
Характеристики трансфера : BT.709
Коэффициенты матрицы : BT.709

Аудио
Идентификатор : 2
Формат : AC-3
Формат/Информация : Audio Coding 3
Расширение режима : CM (complete main)
Параметр Endianness формата : Big
Идентификатор кодека : A_AC3
Продолжительность : 1 ч. 44 м.
Вид битрейта : Постоянный
Битрейт : 448 Кбит/сек
Каналы : 2 канала
Расположение каналов : Front: L R
Частота : 48,0 КГц
Частота кадров : 31,250 кадров/сек (1536 spf)
Метод сжатия : С потерями
Размер потока : 334 Мбайт (6%)
Default : Да
Forced : Нет

pb.wtf



Скачать Асфальтовые джунгли через торрент https://c.radikal.ru/c13/1902/57/f495bbde018f.jpg Скачать фильм Асфальтовые джунгли через торрент бесплантно в хорошем качестве Описание: Атрис сыт по горло тем, что является марионеткой своего босса. Он хочет заработать деньги, чтобы больше не зависеть от главаря ... 10 10 4
Торрент: Зарегистрирован [2019-02-14 18:13] · скачан: 40 раз
Статус: # сомнительно
Размер: 5.29 GB
Как cкачать? Как скачать Асфальтовые джунгли через торрент | qTorrent

% Раздел Тема Автор DL S | L
T Фильмы (мультфильмы) cо спонсором показа (Новинки AVI/MKV) [ 1.46 GB ] Асфальтовые джунгли / Asphaltgorillas [2018 HDRip] MVO ["Синема УС"] bober100 Скачать
1 | 0


Последний раз редактировалось: bober100 (2019-02-15 13:23), всего редактировалось 1 раз

28-11-2019 20:33  

Отключить всю рекламу на сайте

15-02-2019 10:27 Асфальтовые джунгли Скачать торрент  

Asphaltgorillas - Асфальтовые джунгли. Это что за перевод такой
Беспощадная русская адаптацияpb.wtf



    Дорогой пользователь! Огромная просьба, поблагодарите релизера, оцените раздачу и оставьте свои комментарий, если Вы скачали Асфальтовые джунгли через торрент бесплатно! Внесите свою лепту в развитие PiratBit!
    Комментировать посты могут только пользователи прошедшие не сложную регистрацию
    Показать сообщения:    

    Асфальтовые джунгли через торрент
    Скачать бесплатно Асфальтовые джунгли
    Асфальтовые джунгли скачать торрент
    Асфальтовые джунгли смотреть онлайн
    Cкачать фильм Асфальтовые джунгли бесплатно
    Асфальтовые джунгли скачать торрент в хорошем качестве
    Асфальтовые джунгли смотреть онлайн бесплатно в хорошем качестве


    Вы не можете начинать темы
    Вы не можете отвечать на сообщения
    Вы не можете редактировать свои сообщения
    Вы не можете удалять свои сообщения
    Вы не можете голосовать в опросах
    Вы не можете прикреплять файлы к сообщениям
    Вы можете скачивать файлы