Ссылка на приватное зеркало нашего сайта всего за 1$. Внимание количество ограничено!!!

2 сезон

iTunes

1 сезон

1

2 сезон

2 сезон

iTunes

1 сезон

RePack

30

Ultimate

ВАЖНО

ИГРА 18+

pack

RePack

MK11
pack

Забери бонус

RePack

jed

!!Акция!!

Alien_Rage

RePack

fifa19

RePack

Assassins Creed: Odyssey

RePack

NEED FOR SPEED™ PAYBACK

4 сезон

9 сезон

Бесстыжие 9 сезон

Все сериалы

все сериалы на PB.wtf

RePack

FAR CRY 5
  

Слепые пятна / Blindspotting (Карлос Лопес Эстрада) [2018, драма, комедия, BD Remux 1080p] DUB [iTunes] pb.wtf

Слепые пятна через торрент pb.wtf

Размер: 26.74 GB | Добавлен: 1 год 9 мес. назад | Торрент скачан:20 раз
Скачать  

14-02-2019 20:32 Слепые пятна Скачать торрент  

Слепые пятна / Blindspotting
Год выпуска: 2018
Страна: США
Жанр: драма, комедия
Продолжительность: 01:35:31
Перевод: Дублированный | iTunes
Субтитры: Английские

Режиссер: Карлос Лопес Эстрада

rating

В ролях:

Давид Диггс, Янина Гаванкар, Жасмин Сепас Джонс, Итэн Эмбри, Тиша Кэмпбелл, Уткарш Амбудкар, Кевин Кэрролл, Ньямби Ньямби, Джон Чаффин

Описание:

Коллин ждёт не дождётся окончания срока своих исправительных работ, готовится к спокойной семейной жизни, пытается вразумить безрассудного лучшего друга Майлза, который сам нарывается на проблемы с законом. Но за несколько дней до долгожданной свободы Коллин становится единственным свидетелем того, как полицейский убивает безоружного афроамериканца.

Качество: BD Remux 1080p
Формат: MKV

Видео: MPEG-4 AVC, 1920x1080, 35.2 Мbit/s, 23.976 fps
Аудио#1: 48 kHz, AC3, 5.1, 384 Kbps | iTunes | RUS |
Аудио#2: 48 kHz, TrueHD, 7.1, 3867 Kbps | Оригинал | ENG |
Аудио#3: 48 kHz, AC3, 5.1, 640 Kbps | Оригинал | ENG |
скриншот  скриншот  скриншот  скриншот  скриншот  

General
Unique ID : 122711775436982713045664553775862614739 (0x5C516DA40A38EF9481D877A14EA38AD3)
Complete name : D:Video111Blindspotting.2018.BDREMUX.1080p.selezen.mkv
Format : Matroska
Format version : Version 4
File size : 26.7 GiB
Duration : 1 h 35 min
Overall bit rate mode : Variable
Overall bit rate : 40.1 Mb/s
Movie name : Blindspotting 2018 from селезень
Encoded date : UTC 2018-11-14 09:23:24
Writing application : mkvmerge v28.2.0 ('The Awakening') 64-bit
Writing library : libebml v1.3.6 + libmatroska v1.4.9

Video
ID : 1
Format : AVC
Format/Info : Advanced Video Codec
Format profile : High@L4.1
Format settings : CABAC / 4 Ref Frames
Format settings, CABAC : Yes
Format settings, ReFrames : 4 frames
Codec ID : V_MPEG4/ISO/AVC
Duration : 1 h 35 min
Bit rate mode : Variable
Bit rate : 35.2 Mb/s
Maximum bit rate : 37.0 Mb/s
Width : 1 920 pixels
Height : 1 080 pixels
Display aspect ratio : 16:9
Frame rate mode : Constant
Frame rate : 23.976 (24000/1001) FPS
Color space : YUV
Chroma subsampling : 4:2:0
Bit depth : 8 bits
Scan type : Progressive
Bits/(Pixel*Frame) : 0.707
Stream size : 23.4 GiB (88%)
Language : English
Default : Yes
Forced : No

Audio #1
ID : 2
Format : AC-3
Format/Info : Audio Coding 3
Commercial name : Dolby Digital
Codec ID : A_AC3
Duration : 1 h 35 min
Bit rate mode : Constant
Bit rate : 384 kb/s
Channel(s) : 6 channels
Channel layout : L R C LFE Ls Rs
Sampling rate : 48.0 kHz
Frame rate : 31.250 FPS (1536 SPF)
Bit depth : 16 bits
Compression mode : Lossy
Stream size : 262 MiB (1%)
Title : iTunes
Language : Russian
Service kind : Complete Main
Default : Yes
Forced : Yes

Audio #2
ID : 3
Format : MLP FBA 16-ch
Format/Info : Meridian Lossless Packing FBA with 16-channel presentation
Commercial name : Dolby TrueHD with Dolby Atmos
Codec ID : A_TRUEHD
Duration : 1 h 35 min
Bit rate mode : Variable
Bit rate : 3 867 kb/s
Maximum bit rate : 4 962 kb/s
Channel(s) : 8 channels
Channel layout : L R C LFE Ls Rs Lb Rb
Sampling rate : 48.0 kHz
Frame rate : 1 200.000 FPS (40 SPF)
Compression mode : Lossless
Stream size : 2.58 GiB (10%)
Title : Original
Language : English
Default : No
Forced : No
Number of dynamic objects : 15
Bed channel count : 1 channel
Bed channel configuration : LFE

Audio #3
ID : 4
Format : AC-3
Format/Info : Audio Coding 3
Commercial name : Dolby Digital
Codec ID : A_AC3
Duration : 1 h 35 min
Bit rate mode : Constant
Bit rate : 640 kb/s
Channel(s) : 6 channels
Channel layout : L R C LFE Ls Rs
Sampling rate : 48.0 kHz
Frame rate : 31.250 FPS (1536 SPF)
Bit depth : 16 bits
Compression mode : Lossy
Stream size : 437 MiB (2%)
Language : English
Service kind : Complete Main
Default : No
Forced : No

Text #1
ID : 5
Format : UTF-8
Codec ID : S_TEXT/UTF8
Codec ID/Info : UTF-8 Plain Text
Duration : 1 h 29 min
Bit rate : 79 b/s
Count of elements : 1416
Stream size : 52.3 KiB (0%)
Title : Full
Language : English
Default : No
Forced : No

Text #2
ID : 6
Format : UTF-8
Codec ID : S_TEXT/UTF8
Codec ID/Info : UTF-8 Plain Text
Duration : 1 h 35 min
Bit rate : 82 b/s
Count of elements : 1602
Stream size : 57.2 KiB (0%)
Title : SDH
Language : English
Default : No
Forced : No

Menu
00:00:00.000 : en:Chapter 1
00:06:32.601 : en:Chapter 2
00:11:50.627 : en:Chapter 3
00:18:19.265 : en:Chapter 4
00:24:39.269 : en:Chapter 5
00:32:56.600 : en:Chapter 6
00:37:39.757 : en:Chapter 7
00:44:27.999 : en:Chapter 8
00:47:27.136 : en:Chapter 9
00:54:26.555 : en:Chapter 10
01:00:20.534 : en:Chapter 11
01:06:50.632 : en:Chapter 12
01:12:46.862 : en:Chapter 13
01:16:54.610 : en:Chapter 14
01:21:07.362 : en:Chapter 15
01:28:48.573 : en:Chapter 16

pb.wtf



Скачать Слепые пятна через торрент http://img11.lostpic.net/2018/11/14/bfdf85160d5e577f37b4840a4b6dbcea.jpg Скачать фильм Слепые пятна через торрент бесплантно в хорошем качестве Описание: Коллин ждёт не дождётся окончания срока своих исправительных работ, готовится к спокойной семейной жизни, пытается вразумить ... 10 10 6
Торрент: Зарегистрирован [2019-02-14 20:32] · скачан: 20 раз
Статус: √ проверено
Размер: 26.74 GB
Как cкачать? Как скачать Слепые пятна через торрент | qTorrent

% Раздел Тема Автор DL S | L
T Ultra HD (UHD: 2K, 4K, 8K) — видео сверхвысокой чёткости [ 17.96 GB ] Слепые пятна / Blindspotting [2018 UHD WEBRip 2160p] [ ] sheker187 Скачать
1 | 0
Фильмы [HD 720p, 1080p] (Хороший звук DUB, MVO) [ 6.14 GB ] Слепые пятна / Blindspotting [2018 BDRip 720p] bober100 Скачать
1 | 0
Фильмы [HD 720p, 1080p] (Хороший звук DUB, MVO) [ 15 GB ] Слепые пятна / Blindspotting [2018 BDRip 1080p] bober100 Скачать
1 | 0
Фильмы 2018 [DVDrip, WEB-DLRip, HDrip] (DUB, MVO) [ 1.42 GB ] Слепые пятна / Blindspotting [2018 BDRip] - Twi7ter Скачать
7 | 0
Фильмы (WEB-DL 720p, 1080p) [ 3.73 GB ] Слепые пятна / Blindspotting [2018 WEB-DL 1080p] bober100 Скачать
1 | 0
Фильмы 2018 [DVDrip, WEB-DLRip, HDrip] (DUB, MVO) [ 1.8 GB ] Слепые пятна / Blindspotting [2018 WEB-DLRip-AVC] - ExKinoRay Enigma2010 Скачать
1 | 0

28-11-2019 20:33  

Отключить всю рекламу на сайте

    Дорогой пользователь! Огромная просьба, поблагодарите релизера, оцените раздачу и оставьте свои комментарий, если Вы скачали Слепые пятна через торрент бесплатно! Внесите свою лепту в развитие PiratBit!
    Комментировать посты могут только пользователи прошедшие не сложную регистрацию
    Показать сообщения:    

    Слепые пятна через торрент
    Скачать бесплатно Слепые пятна
    Слепые пятна скачать торрент
    Слепые пятна смотреть онлайн
    Cкачать фильм Слепые пятна бесплатно
    Слепые пятна скачать торрент в хорошем качестве
    Слепые пятна смотреть онлайн бесплатно в хорошем качестве


    Вы не можете начинать темы
    Вы не можете отвечать на сообщения
    Вы не можете редактировать свои сообщения
    Вы не можете удалять свои сообщения
    Вы не можете голосовать в опросах
    Вы не можете прикреплять файлы к сообщениям
    Вы можете скачивать файлы