Доктор Стрэндж

Лицензия

Добыча

Дубляж

Уэнсдэй

1 сезон

Тор

Дубляж

В эфире

Дубляж

Там, где раки поют

MVO

Властелин колец

1 сезон

Deluxe

pack

Рекомендуем

30

Пиратка

ВАЖНО

ВАЖНО

Ghostwire

Пиратка

jed

RePack

nioh2

RePack

RDR2

RePack

NEED FOR SPEED™ PAYBACK

RePack

скачать торрент

Кинопоиск HD

Острые козырьки 6 сезон

6 сезон

FAR CRY 6

RePack

скачать торрент

Лицензия

скачать торрент

MVO

1

1 сезон

скачать торрент

1 сезон

скачать торрент

Лицензия

  

Обнимая небо / Сезон: 1 / Серии: 1-12 из 12 (Милена Фадеева) [2014, драма, HDTV 1080i]

Обнимая небо через торрент pb.wtf

Размер: 39.67 GB | Добавлен: 3 года 9 мес. назад | Торрент скачан:21 раз
Смотреть онлайн | Скачать   

15-02-2019 07:52 Обнимая небо Скачать торрент  

Обнимая небо Год выпуска: 2014
Страна: Россия
Жанр: драма
Продолжительность: ~ 00:52:00
Субтитры: отсутствуют

Режиссер: Милена Фадеева

rating

В ролях:

Александр Петров (Ваня Котов), Любовь Новикова, Даниил Страхов, Сергей Романович (Дима Косяков), Олеся Фаттахова (Анна Матюхина), Егор Долгополов, Захар Кабанов (Пашка), Евгений Никитин, Виктория Толстоганова, Екатерина Редникова, Анатолий Белый, Екатерина Никитина
Описание:

Это история любви длиною в жизнь. Действие фильма начинается в 1985 году в военном гарнизоне, в котором дислоцируется полк истребительной авиации. Двух десятиклассников - дочь заместителя командира полка Женю Луговую и сына официантки лётной столовой Ваньку Котова - накрывает чувство первой взаимной любви. Жесткие драматические события разводят героев, их жизненные пути расходятся, и они теряют друг друга на долгие-долгие годы. Ванька Котов становится летчиком-испытателем, Женя Луговая - военным хирургом. Однажды судьба вновь сводит героев...

Качество: HDTV 1080i
Формат: TS

Видео: MPEG4 Video (H264) 1920x1080, ~ 8646 Кбит/с, 25.00fps 0.167 bit/pixel
Аудио: AC3, 6 канала, 48,0 КГц, ~384 kbps
скриншот   скриншот   скриншот   скриншот  

Общее
Идентификатор : 1 (0x1)
Полное имя : D:\Запись\Obnimaja.nebo.HDTV(1080i).MediaClub\Obnimaja.nebo.01.HDTV(1080i).MediaClub.ts
Формат : MPEG-TS
Размер файла : 3,44 Гбайт
Продолжительность : 51 м.
Режим общего битрейта : Переменный
Общий поток : 9504 Кбит/сек

Видео
Идентификатор : 5481 (0x1569)
Идентификатор меню : 1 (0x1)
Формат : AVC
Формат/Информация : Advanced Video Codec
Профиль формата : [email protected]
Параметр CABAC формата : Да
Параметр ReFrames формата : 3 кадра
Идентификатор кодека : 27
Продолжительность : 51 м.
Битрейт : 8646 Кбит/сек
Ширина : 1920 пикселей
Высота : 1080 пикселей
Соотношение сторон : 16:9
Частота кадров : 25,000 кадров/сек
Стандарт вещания : Component
Цветовое пространство : YUV
Субдискретизация насыщенности : 4:2:0
Битовая глубина : 8 бит
Тип развёртки : Чересстрочная
Порядок развёртки : Верхнее поле первое
Бит/(Пиксели*Кадры) : 0.167
Размер потока : 3,13 Гбайт (91%)
Основные цвета : BT.709
Характеристики трансфера : BT.709
Коэффициенты матрицы : BT.709

Аудио
Идентификатор : 5485 (0x156D)
Идентификатор меню : 1 (0x1)
Формат : AC-3
Формат/Информация : Audio Coding 3
Расширение режима : CM (complete main)
Параметр Endianness формата : Big
Идентификатор кодека : 6
Продолжительность : 51 м.
Вид битрейта : Постоянный
Битрейт : 384 Кбит/сек
Каналы : 6 каналов
Расположение каналов : Front: L C R, Side: L R, LFE
Частота : 48,0 КГц
Битовая глубина : 16 бит
Метод сжатия : С потерями
Размер потока : 142 Мбайт (4%)
Язык : Russian




Скачать Обнимая небо через торрент http://i63.fastpic.ru/big/2014/0918/94/9ab384f86b2de04e2fc1aca60a734c94.jpg Скачать, смотреть онлайн Обнимая небо бесплантно в хорошем качестве Описание: Это история любви длиною в жизнь. Действие фильма начинается в 1985 году в военном гарнизоне, в котором дислоцируется полк ... 10 10 4
Торрент: Зарегистрирован [2019-02-15 07:52] · скачан: 21 раз
Статус: √ проверено
Размер: 39.67 GB
Как cкачать? Как скачать Обнимая небо через торрент | UTorrent

% Раздел Тема Автор DL S | L
Наши сериалы [ 8.46 GB ] Обнимая небо / Сезон: 1 / Серии: 1-12 из 12 | | HDTVRip bober100 Скачать
1 | 0
Наши сериалы [ 7.03 GB ] Обнимая небо / Сезон: 1 / Серии 1-12 из 12 | Обнимая небо / Сезон: 1 / Серии 1-12 из 12 | SATRip GEKADOL Скачать
2 | 0

28-11-2019 20:33  


Отключить вcю реклaмy на сайте, в т.ч. и в плеере онлайн просмотра!

    Дорогой пользователь! Огромная просьба, поблагодарите релизера, оцените раздачу и оставьте свои комментарий, если Вы скачали Обнимая небо через торрент бесплатно!!
    Комментировать посты могут только пользователи прошедшие не сложную регистрацию
    Показать сообщения:    


    Обнимая небо через торрент
    Скачать бесплатно Обнимая небо
    Обнимая небо скачать торрент
    Обнимая небо смотреть онлайн
    Cкачать фильм Обнимая небо бесплатно
    Обнимая небо скачать торрент в хорошем качестве
    Обнимая небо смотреть онлайн бесплатно в хорошем качестве
    Вы не можете начинать темы
    Вы не можете отвечать на сообщения
    Вы не можете редактировать свои сообщения
    Вы не можете удалять свои сообщения
    Вы не можете голосовать в опросах
    Вы не можете прикреплять файлы к сообщениям
    Вы можете скачивать файлы
    Обнимая небо / Сезон: 1 / Серии: 1-12 из 12 [2014, драма, HDTV 1080i] смотреть онлайн, скачать торрент picoco.icu