Ссылка на приватное зеркало нашего сайта всего за 1$. Внимание количество ограничено!!!

2 сезон

iTunes

1 сезон

1

iTunes

iTunes

iTunes

1 сезон

RePack

30

ИГРА 18+

pack

ВАЖНО

!!Акция!!

Alien_RageХит недели

RePack

MK11
pack

Забери бонус

RePack

jed

!!Акция!!

Alien_Rage

RePack

fifa19

RePack

Assassins Creed: Odyssey

RePack

NEED FOR SPEED™ PAYBACK

4 сезон

9 сезон

Бесстыжие 9 сезон

Все сериалы

все сериалы на PB.wtf

RePack

FAR CRY 5
  

Обнимая небо / Сезон: 1 / Серии: 1-12 из 12 (Милена Фадеева) [2014, драма, HDTVRip] pb.wtf

Обнимая небо через торрент pb.wtf

Размер: 8.46 GB | Добавлен: 1 год 8 мес. назад | Торрент скачан:154 раза
Скачать  

15-02-2019 08:04 Обнимая небо Скачать торрент  

Обнимая небо Год выпуска: 2014
Страна: Россия
Жанр: драма
Продолжительность: ~ 00:52:00
Субтитры: отсутствуют

Режиссер: Милена Фадеева

rating

В ролях:

Александр Петров (Ваня Котов), Любовь Новикова, Даниил Страхов, Сергей Романович (Дима Косяков), Олеся Фаттахова (Анна Матюхина), Егор Долгополов, Захар Кабанов (Пашка), Евгений Никитин, Виктория Толстоганова, Екатерина Редникова, Анатолий Белый, Екатерина Никитина
Описание:

Это история любви длиною в жизнь. Действие фильма начинается в 1985 году в военном гарнизоне, в котором дислоцируется полк истребительной авиации. Двух десятиклассников - дочь заместителя командира полка Женю Луговую и сына официантки лётной столовой Ваньку Котова - накрывает чувство первой взаимной любви. Жесткие драматические события разводят героев, их жизненные пути расходятся, и они теряют друг друга на долгие-долгие годы. Ванька Котов становится летчиком-испытателем, Женя Луговая - военным хирургом. Однажды судьба вновь сводит героев...

Качество: HDTVRip
Формат: AVI

Видео: XviD, ~ 1800 Кбит/с, 720x384
Аудио: AC3, 2 ch, 192 Кбит/с
скриншот   скриншот   скриншот   скриншот  

Общее
Полное имя : F:\Obnimaja.nebo.HDTVRip.MediaClub\Obnimaja.nebo.01.HDTVRip.MediaClub.avi
Формат : AVI
Формат/Информация : Audio Video Interleave
Размер файла : 742 Мбайт
Продолжительность : 51 м.
Общий поток : 2001 Кбит/сек
Программа кодирования : VirtualDubMod 1.5.10.3 | www.virtualdub-fr.org || (build 2550/release)
Библиотека кодирования : VirtualDub build 32507/release

Видео
Идентификатор : 0
Формат : MPEG-4 Visual
Профиль формата : Advanced Simple@L5
Параметр BVOP формата : 1
Параметр QPel формата : Нет
Параметр GMC формата : Без точки перехода
Параметр матрицы формата : Выборочная
Идентификатор кодека : XVID
Идентификатор кодека/Подсказка : XviD
Продолжительность : 51 м.
Битрейт : 1800 Кбит/сек
Ширина : 720 пикс.
Высота : 384 пикс.
Соотношение сторон : 1,875
Частота кадров : 25,000 кадр/сек
Цветовое пространство : YUV
Подвыборка цветности : 4:2:0
Битовая глубина : 8 бит
Тип развёртки : Прогрессивная
Метод сжатия : С потерями
Бит/(Пиксели*Кадры) : 0.260
Размер потока : 667 Мбайт (90%)
Библиотека кодирования : XviD 73

Аудио
Идентификатор : 1
Формат : AC-3
Формат/Информация : Audio Coding 3
Расширение режима : CM (complete main)
Идентификатор кодека : 2000
Продолжительность : 51 м.
Вид битрейта : Постоянный
Битрейт : 192 Кбит/сек
Каналы : 2 канала
Расположение каналов : Front: L R
Частота : 48,0 КГц
Битовая глубина : 16 бит
Метод сжатия : С потерями
Размер потока : 71,2 Мбайт (10%)
Выравнивание : Разделение по промежуткам
Продолжительность промежутка : 40 мс. (1,00 видеокадр)
Время предзагрузки промежутка : 500 ms

pb.wtf



Скачать Обнимая небо через торрент http://i63.fastpic.ru/big/2014/0918/94/9ab384f86b2de04e2fc1aca60a734c94.jpg Скачать фильм Обнимая небо через торрент бесплантно в хорошем качестве Описание: Это история любви длиною в жизнь. Действие фильма начинается в 1985 году в военном гарнизоне, в котором дислоцируется полк ... 7.8 10 4
Торрент: Зарегистрирован [2019-02-15 08:04] · скачан: 154 раз
Статус: √ проверено
Размер: 8.46 GB
Как cкачать? Как скачать Обнимая небо через торрент | qTorrent

% Раздел Тема Автор DL S | L
Наши сериалы [ 39.67 GB ] Обнимая небо / Сезон: 1 / Серии: 1-12 из 12 [2014 HDTV 1080i] bober100 Скачать
1 | 0
Наши сериалы [ 7.03 GB ] Обнимая небо / Сезон: 1 / Серии 1-12 из 12 [2014 Россия SATRip) GEKADOL Скачать
1 | 0

28-11-2019 20:33  

Отключить всю рекламу на сайте

15-02-2019 10:39 Обнимая небо Скачать торрент  

Отличный сериалpb.wtf



    Дорогой пользователь! Огромная просьба, поблагодарите релизера, оцените раздачу и оставьте свои комментарий, если Вы скачали Обнимая небо через торрент бесплатно! Внесите свою лепту в развитие PiratBit!
    Комментировать посты могут только пользователи прошедшие не сложную регистрацию
    Показать сообщения:    

    Обнимая небо через торрент
    Скачать бесплатно Обнимая небо
    Обнимая небо скачать торрент
    Обнимая небо смотреть онлайн
    Cкачать фильм Обнимая небо бесплатно
    Обнимая небо скачать торрент в хорошем качестве
    Обнимая небо смотреть онлайн бесплатно в хорошем качестве


    Вы не можете начинать темы
    Вы не можете отвечать на сообщения
    Вы не можете редактировать свои сообщения
    Вы не можете удалять свои сообщения
    Вы не можете голосовать в опросах
    Вы не можете прикреплять файлы к сообщениям
    Вы можете скачивать файлы