Всегда рабочее зеркало просто перед .vidak.icu напиши любое слово или цифру, Пример http://mj3.vidak.icu

>

7.4

iTunes

7.4

2 сезон

9.4

1 сезон

1

7.4

2 сезон

7.2

iTunes

6.0

MVO

13

6.1

iTunes

8.3

Пиратка

30

ULTIMATE

pack

9.9

Лицензия

ВАЖНО

ИГРА 18+

pack

7.3

RePack

MK11

7.7

RePack

jed

7.8

RePack

fifa19

8.5

RePack

RDR2

RePack

NEED FOR SPEED™ PAYBACK

1 сезон

9 сезон

Бесстыжие 9 сезон

Все сериалы

все сериалы на PB.wtf

RePack

FAR CRY 5

Anonymous, доброй ночи, мы катастрофически не успеваем собрать деньги на оплату серверов, помогите нам пожалуйста 5,10,15р., для нас важна любая помощь . В качестве благодарности мы отключим Вам всю рекламу на сайте (укажите свой ник в строку Ваше имя)!

×
  
Magnet ссылка

Святая гора / The Holy Mountain (Алехандро Ходоровский) [1973, фэнтези, драма, приключения, BDRip 720p by msltel] AVO, VO pb.wtf

Святая гора через торрент pb.wtf

Размер: 4.35 GB | Добавлен: 2 года 11 мес. назад | Торрент скачан:3 раза
Смотреть онлайн Святая гора | Скачать    Ребята, помогите собрать деньги на оплату серверов!!!

15-02-2019 10:03 Святая гора Скачать торрент  

Название: Святая гора
Оригинальное название: The Holy Mountain
Год выпуска: 1973
Страна: Мексика, США
Жанр: фэнтези, драма, приключения
Продолжительность: 01:53:28
Перевод: авторский, закадровый одноголосый

Режиссер: Алехандро Ходоровский
В ролях: Алехандро Ходоровский, Орасио Салинас, Замира Саундерс, Хуан Феррара, Адриана Пейдж, Берт Клайнер, Валери Ходоровски, Никки Николс, Ричард Рутовски, Луис Ломели, Ана Де Саде, Чучо-Чучо, Летиция Роблз, Конни Де Ла Мора, Дэвид Капралик, Жаклин Вольтер, Пабло Ледер, Бобби Камерон, Рэ Дебрис, Гваделупэ Перулеро, Хосе Антонио Алькараз, Эктор Ортега, Роберт Тэйчер, Гарри Кон, Мануэль Дондэ, Рамиро Чавез Гочика, Басилио Гонзалез, Марсела Лопез Рей, Джейн Митчел, Marcela Ponzarelli, Дэвид Силва

О фильме: Христос освобождается от оков и оказывается в современном городе - средоточии человеческих пороков, культа смерти и секса. Здесь он попадает в таинственную эзотерическую школу магов. Там же оказываются и молодые развращённые жизнью персонажи со всей Солнечной системы. Гуру и его ученики отправляются к Священной горе, где живут девять мудрецов, знающих секрет бессмертия...



Качество: BDRip 720p
Формат: MKV
Видео: MPEG-4 AVC, 4656 Kбит/с, 1280x544, 23.976 кадр/с
Аудио 1: русский, AC3, 192 kbps, 2 ch, 48 kHz [авторский, Антон Алексеев]
Аудио 2: русский, AC3, 192 kbps, 2 ch, 48 kHz [закадровый одноголосый]
Аудио 3: английский, AC3, 448 kbps, 6 ch, 48 kHz [оригинал]
Субтитры 1: русские
Субтитры 2: английские
Общее
Уникальный идентификатор : 221602647018934955812288141014793529173 (0xA6B71E0BA0AEFD2CB1C4D253D60D2755)
Полное имя : D:\Video\Святая гора.1973.BDRip 720p by msltel.mkv
Формат : Matroska
Версия формата : Version 4
Размер файла : 4,35 Гбайт
Продолжительность : 1 ч. 53 м.
Общий поток : 5490 Кбит/сек
Название фильма : Rip by msltel
Дата кодирования : UTC 2019-02-15 10:10:50
Программа кодирования : mkvmerge v8.2.0 ('World of Adventure') 64bit
Библиотека кодирования : libebml v1.3.1 + libmatroska v1.4.2

Видео
Идентификатор : 1
Формат : AVC
Формат/Информация : Advanced Video Codec
Профиль формата : High@L4.1
Настройки формата : CABAC / 9 Ref Frames
Параметр CABAC формата : Да
Параметр RefFrames формата : 9 кадров
Идентификатор кодека : V_MPEG4/ISO/AVC
Продолжительность : 1 ч. 53 м.
Битрейт : 4656 Кбит/сек
Ширина : 1280 пикселей
Высота : 544 пикселя
Соотношение сторон : 2,35:1
Режим частоты кадров : Постоянный
Частота кадров : 23,976 (24000/1001) кадра/сек
Цветовое пространство : YUV
Субдискретизация насыщенности : 4:2:0
Битовая глубина : 8 бит
Тип развёртки : Прогрессивная
Бит/(Пиксели*Кадры) : 0.279
Размер потока : 3,69 Гбайт (85%)
Библиотека кодирования : x264 core 157 r2935 545de2f
Настройки программы : cabac=1 / ref=9 / deblock=1:-2:-2 / analyse=0x3:0x113 / me=umh / subme=11 / psy=1 / psy_rd=1.00:0.15 / mixed_ref=1 / me_range=32 / chroma_me=1 / trellis=2 / 8x8dct=1 / cqm=0 / deadzone=21,11 / fast_pskip=0 / chroma_qp_offset=-3 / threads=6 / lookahead_threads=1 / sliced_threads=0 / nr=0 / decimate=1 / interlaced=0 / bluray_compat=0 / constrained_intra=0 / bframes=8 / b_pyramid=2 / b_adapt=2 / b_bias=0 / direct=1 / weightb=1 / open_gop=0 / weightp=2 / keyint=230 / keyint_min=23 / scenecut=40 / intra_refresh=0 / rc_lookahead=40 / rc=crf / mbtree=1 / crf=20.1 / qcomp=0.60 / qpmin=0 / qpmax=69 / qpstep=4 / vbv_maxrate=50000 / vbv_bufsize=62500 / crf_max=0.0 / nal_hrd=none / filler=0 / ip_ratio=1.40 / aq=1:1.00
Язык : English
Default : Да
Forced : Нет

Аудио #1
Идентификатор : 2
Формат : AC-3
Формат/Информация : Audio Coding 3
Коммерческое название : Dolby Digital
Идентификатор кодека : A_AC3
Продолжительность : 1 ч. 53 м.
Вид битрейта : Постоянный
Битрейт : 192 Кбит/сек
Каналы : 2 канала
Channel layout : L R
Частота : 48,0 КГц
Частота кадров : 31,250 кадров/сек (1536 SPF)
Битовая глубина : 16 бит
Метод сжатия : С потерями
Размер потока : 156 Мбайт (3%)
Заголовок : Антон Алексеев
Язык : Russian
ServiceKind/String : Complete Main
Default : Да
Forced : Нет

Аудио #2
Идентификатор : 3
Формат : AC-3
Формат/Информация : Audio Coding 3
Коммерческое название : Dolby Digital
Идентификатор кодека : A_AC3
Продолжительность : 1 ч. 53 м.
Вид битрейта : Постоянный
Битрейт : 192 Кбит/сек
Каналы : 2 канала
Channel layout : L R
Частота : 48,0 КГц
Частота кадров : 31,250 кадров/сек (1536 SPF)
Битовая глубина : 16 бит
Метод сжатия : С потерями
Размер потока : 156 Мбайт (3%)
Заголовок : VO
Язык : Russian
ServiceKind/String : Complete Main
Default : Нет
Forced : Нет

Аудио #3
Идентификатор : 4
Формат : AC-3
Формат/Информация : Audio Coding 3
Коммерческое название : Dolby Digital
Идентификатор кодека : A_AC3
Продолжительность : 1 ч. 53 м.
Вид битрейта : Постоянный
Битрейт : 448 Кбит/сек
Каналы : 6 каналов
Channel layout : L R C LFE Ls Rs
Частота : 48,0 КГц
Частота кадров : 31,250 кадров/сек (1536 SPF)
Битовая глубина : 16 бит
Метод сжатия : С потерями
Размер потока : 364 Мбайт (8%)
Заголовок : original
Язык : English
ServiceKind/String : Complete Main
Default : Нет
Forced : Нет

Текст #1
Идентификатор : 5
Формат : UTF-8
Идентификатор кодека : S_TEXT/UTF8
Идентификатор кодека/Информация : UTF-8 Plain Text
Продолжительность : 1 ч. 50 м.
Битрейт : 27 бит/сек
ElementCount : 371
Размер потока : 22,0 Кбайт (0%)
Заголовок : русские
Язык : Russian
Default : Нет
Forced : Нет

Текст #2
Идентификатор : 6
Формат : UTF-8
Идентификатор кодека : S_TEXT/UTF8
Идентификатор кодека/Информация : UTF-8 Plain Text
Продолжительность : 1 ч. 44 м.
Битрейт : 17 бит/сек
ElementCount : 352
Размер потока : 13,1 Кбайт (0%)
Заголовок : английские
Язык : English
Default : Нет
Forced : Нет
pb.wtf



Скачать Святая гора через торрент https://d.radikal.ru/d13/1902/d9/b4f9fa5048b1.jpg Скачать, смотреть онлайн Святая гора бесплантно в хорошем качестве О фильме: Христос освобождается от оков и оказывается в современном городе - средоточии человеческих пороков, культа смерти и секса. Здесь ... 5 10 1
Info! Золотая раздача, скачанное не засчитывается.
Торрент: Зарегистрирован [2019-02-15 10:03] · скачан: 3 раз
Статус: √ проверено
Размер: 4.35 GB
Как cкачать? Как скачать Святая гора через торрент | UTorrent

% Раздел Тема Автор DL S | L
Фильмы с авторской озвучкой [ 11.21 GB ] Святая гора / The Holy Mountain [1973 BDRip 1080p by msltel] AVO VO msltel Скачать
1 | 0

28-11-2019 20:33  

Отключить всю рекламу на сайте

    Дорогой пользователь! Огромная просьба, поблагодарите релизера, оцените раздачу и оставьте свои комментарий, если Вы скачали Святая гора через торрент бесплатно!
    Комментировать посты могут только пользователи прошедшие не сложную регистрацию
    Показать сообщения:    

    Святая гора через торрент
    Скачать бесплатно Святая гора
    Святая гора скачать торрент
    Святая гора смотреть онлайн
    Cкачать фильм Святая гора бесплатно
    Святая гора скачать торрент в хорошем качестве
    Святая гора смотреть онлайн бесплатно в хорошем качестве


    Вы не можете начинать темы
    Вы не можете отвечать на сообщения
    Вы не можете редактировать свои сообщения
    Вы не можете удалять свои сообщения
    Вы не можете голосовать в опросах
    Вы не можете прикреплять файлы к сообщениям
    Вы можете скачивать файлы