Ссылка на приватное зеркало всего за 1$. Внимание количество ограничено!!!

OK

1+1

iTunes

мы

OK

1

WEB-DLRip

Джокер

Пифагор

Ведьмак / The Witcher сериал

iTunes

ПШазам

ОК

Оно 2

iTunes

30
pack

Вам бонус

ВАЖНО

!!Акция!!

Alien_RageХит недели

RePack

Resident Evil 21

ИГРА 18+

pack

RePack

jed

RePack

fifa19

RePack

Assassins Creed: Odyssey

RePack

NEED FOR SPEED™ PAYBACK

4 сезон

9 сезон

Бесстыжие 9 сезон

Все сериалы

все сериалы на PB.wtf

RePack

FAR CRY 5
  

От романа не сбежишь / Runaway Romance (Брайан Херцлингер) [2018, драма, мелодрама, WEB-DL 720p] MVO ["Синема УС"] pb.wtf

От романа не сбежишь через торрент pb.wtf

Размер: 3.81 GB | Добавлен: 11 мес. назад | Торрент скачан:27 раз
Скачать  

15-02-2019 12:01 От романа не сбежишь Скачать торрент  

От романа не сбежишь / Runaway RomanceГод выпуска: 2018
Страна: США
Жанр: драма, мелодрама
Продолжительность: 01:35:06
Перевод: Любительский (многоголосый) | "Синема УС"
Субтитры: отсутствуют

Режиссер: Брайан Херцлингер

rating

В ролях:

Даниэль Чакран, Тревор Донован, Галадриель Стинман, Татум О’Нил, Бо Дэвидсон, Дрю Кэш, Кен Штрунк, Грейс Уилсон, Скотт Саммитт, Лолита Прайс

Описание:

Звезда реалити-шоу сбегает из Голливуда и оказывается в деревне амишей. Она стоит перед выбором: остаться здесь или вернуться в свою прошлую жизнь.

Качество: WEB-DL 720p
Формат: MKV

Видео: h.264, 5 355 Кбит/с, 1280x720
Аудио#1: Русский, (AC3, 2 ch, 384 Кбит/с)
скриншот  скриншот  скриншот  

Общее
Уникальный идентификатор : 195079944759222023000658571035454761722 (0x92C307DD02F812EAB436CF5C8A046AFA)
Полное имя : D:\Runaway.Romance.2018.P.WEB-DL.72Op.mkv
Формат : Matroska
Версия формата : Version 2
Размер файла : 3,81 Гбайт
Продолжительность : 1 ч. 35 м.
Режим общего битрейта : Переменный
Общий поток : 5741 Кбит/сек
Дата кодирования : UTC 2019-02-14 19:52:20
Программа кодирования : mkvmerge v8.3.0 ('Over the Horizon') 64bit
Библиотека кодирования : libebml v1.3.1 + libmatroska v1.4.2

Видео
Идентификатор : 1
Формат : AVC
Формат/Информация : Advanced Video Codec
Профиль формата : High@L4.1
Параметр CABAC формата : Да
Параметр RefFrames формата : 4 кадра
Идентификатор кодека : V_MPEG4/ISO/AVC
Продолжительность : 1 ч. 35 м.
Вид битрейта : Переменный
Битрейт : 5355 Кбит/сек
Максимальный битрейт : 6000 Кбит/сек
Ширина : 1280 пикселей
Высота : 720 пикселей
Соотношение сторон : 16:9
Режим частоты кадров : Постоянный
Частота кадров : 23,976 (24000/1001) кадра/сек
Стандарт вещания : Component
Цветовое пространство : YUV
Субдискретизация насыщенности : 4:2:0
Битовая глубина : 8 бит
Тип развёртки : Прогрессивная
Бит/(Пиксели*Кадры) : 0.237
Размер потока : 3,48 Гбайт (91%)
Default : Да
Forced : Нет
Цветовой диапазон : Limited
Основные цвета : BT.709
Характеристики трансфера : BT.709
Коэффициенты матрицы : BT.709

Аудио
Идентификатор : 2
Формат : AC-3
Формат/Информация : Audio Coding 3
Расширение режима : CM (complete main)
Параметр Endianness формата : Big
Идентификатор кодека : A_AC3
Продолжительность : 1 ч. 35 м.
Вид битрейта : Постоянный
Битрейт : 384 Кбит/сек
Каналы : 2 канала
Расположение каналов : Front: L R
Частота : 48,0 КГц
Частота кадров : 31,250 кадров/сек (1536 spf)
Метод сжатия : С потерями
Размер потока : 261 Мбайт (7%)
Default : Да
Forced : Нет

pb.wtf



Скачать От романа не сбежишь через торрент https://a.radikal.ru/a37/1902/80/77152ea902e7.jpg Скачать фильм От романа не сбежишь через торрент бесплантно в хорошем качестве Описание: Звезда реалити-шоу сбегает из Голливуда и оказывается в деревне амишей. Она стоит перед выбором: остаться здесь или вернуться в ... 10 10 2
Торрент: Зарегистрирован [2019-02-15 12:01] · скачан: 27 раз
Статус: T временная
Размер: 3.81 GB
Как cкачать? Как скачать От романа не сбежишь через торрент | qTorrent

% Раздел Тема Автор DL S | L
T Фильмы (мультфильмы) cо спонсором показа (Новинки AVI/MKV) [ 1.37 GB ] От романа не сбежишь / Runaway Romance [2018 WEB-DLRip] MVO ["Синема УС"] bober100 Скачать
1 | 0

28-11-2019 20:33  

Отключить всю рекламу на сайте

    Дорогой пользователь! Огромная просьба, поблагодарите релизера, оцените раздачу и оставьте свои комментарий, если Вы скачали От романа не сбежишь через торрент бесплатно! Внесите свою лепту в развитие PiratBit!
    Комментировать посты могут только пользователи прошедшие не сложную регистрацию
    Показать сообщения:    

    От романа не сбежишь через торрент
    Скачать бесплатно От романа не сбежишь
    От романа не сбежишь скачать торрент
    От романа не сбежишь смотреть онлайн
    Cкачать фильм От романа не сбежишь бесплатно
    От романа не сбежишь скачать торрент в хорошем качестве
    От романа не сбежишь смотреть онлайн бесплатно в хорошем качестве


    Вы не можете начинать темы
    Вы не можете отвечать на сообщения
    Вы не можете редактировать свои сообщения
    Вы не можете удалять свои сообщения
    Вы не можете голосовать в опросах
    Вы не можете прикреплять файлы к сообщениям
    Вы можете скачивать файлы