новый адрес
Ссылка на приватное зеркало всего за 1$. Внимание количество ограничено!!!

iTunes

1+1

iTunes

мы

iTunes

1

iTunes

Чернобыль

iTunes

Ральф против интернета

Лицензия

ПШазам

Лицензия

Оно 2

Лицензия

30
pack

Вам бонус

ВАЖНО

!!Акция!!

Alien_RageХит недели

RePack

Resident Evil 21

ИГРА 18+

pack

RePack

jed

!!Акция!!

Alien_Rage

RePack

fifa19

RePack

Assassins Creed: Odyssey

RePack

NEED FOR SPEED™ PAYBACK

3 сезон

9 сезон

Бесстыжие 9 сезон

Все сериалы

все сериалы на PB.wtf

RePack

FAR CRY 5
Ребята, катастрофически не хватает 1900р. для оплаты серверов за Октябрь (всвязи с блокировками трафик упал в 3 раза), 1-2р., выручайте.
  

Точка возврата / Backtrace (Брайан А. Миллер) [2018, Драма, криминал, WEB-DLRip-AVC] MVO [HDrezka Studio] pb.wtf

Точка возврата через торрент pb.wtf

Размер: 1.53 GB | Добавлен: 9 мес. назад | Торрент скачан:255 раз
Скачать  

31-12-2018 18:03 Точка возврата Скачать торрент  

Точка возврата / BacktraceГод выпуска: 2018
Страна: Канада, США
Жанр: Драма, криминал
Продолжительность: 01:27:58
Перевод: Профессиональный (многоголосый) | HDrezka Studio
Субтитры: отсутствуют

Режиссер: Брайан А. Миллер

rating

В ролях:

Сильвестр Сталлоне, Райан Гузман, Мэттью Модайн, Медоу Уильямс, Кристофер МакДональд, Колин Эглсфилд, Байли Каррен, Лидия Халл, Свен Теммел, Хезер Йохансен

Описание:

Дерзкое ограбление инкассаторской машины стало самым громким преступлением в городе. Главную тайну - где спрятаны украденные деньги - сможет раскрыть только единственный выживший после заварухи преступник. Но есть один нюанс: он полностью потерял память. Раскрыть преступление поможет экспериментальное вещество: грабитель, изучая глубины своего разума, и коп, следующий за ним, должны прийти к точке возврата. Точке, где всё началось и должно закончиться.

Качество: WEB-DLRip-AVC
Формат: MKV

Видео: 2307 Кбит/с, 1024x552
Аудио: Русский (AC3, 2 ch, 192 Кбит/с)
скриншот  скриншот  скриншот  скриншот  

General
Unique ID : 200433297166813570463323367197914977257 (0x96CA0C83D4C3E027A1AF69933ED853E9)
Complete name : D:Точка возврата2018. WEB-DLRip (AVC).Kinozal-Reliz.mkv
Format : Matroska
Format version : Version 2
File size : 1.53 GiB
Duration : 1 h 27 min
Overall bit rate : 2 501 kb/s
Encoded date : UTC 2018-12-31 13:53:52
Writing application : mkvmerge v7.8.0 ('River Man') 32bit built on Apr 3 2015 12:11:22
Writing library : libebml v1.3.1 + libmatroska v1.4.2

Video
ID : 1
Format : AVC
Format/Info : Advanced Video Codec
Format profile : High@L4.1
Format settings : CABAC / 10 Ref Frames
Format settings, CABAC : Yes
Format settings, ReFrames : 10 frames
Codec ID : V_MPEG4/ISO/AVC
Duration : 1 h 27 min
Bit rate : 2 307 kb/s
Width : 1 024 pixels
Height : 552 pixels
Display aspect ratio : 1.85:1
Frame rate mode : Constant
Frame rate : 23.976 FPS
Color space : YUV
Chroma subsampling : 4:2:0
Bit depth : 8 bits
Scan type : Progressive
Bits/(Pixel*Frame) : 0.170
Stream size : 1.38 GiB (90%)
Writing library : x264 core 146 r2538 121396c
Encoding settings : cabac=1 / ref=10 / deblock=1:0:0 / analyse=0x3:0x111 / me=umh / subme=9 / psy=1 / psy_rd=1.00:0.10 / mixed_ref=1 / me_range=16 / chroma_me=1 / trellis=2 / 8x8dct=1 / cqm=0 / deadzone=21,11 / fast_pskip=0 / chroma_qp_offset=-3 / threads=6 / lookahead_threads=1 / sliced_threads=0 / nr=0 / decimate=1 / interlaced=0 / bluray_compat=0 / constrained_intra=0 / bframes=3 / b_pyramid=2 / b_adapt=2 / b_bias=0 / direct=3 / weightb=1 / open_gop=0 / weightp=2 / keyint=250 / keyint_min=23 / scenecut=40 / intra_refresh=0 / rc_lookahead=50 / rc=2pass / mbtree=1 / bitrate=2307 / ratetol=1.0 / qcomp=0.60 / qpmin=0 / qpmax=69 / qpstep=4 / cplxblur=20.0 / qblur=0.5 / ip_ratio=1.40 / aq=1:1.00
Default : Yes
Forced : No

Audio
ID : 2
Format : AC-3
Format/Info : Audio Coding 3
Commercial name : Dolby Digital
Codec ID : A_AC3
Duration : 1 h 27 min
Bit rate mode : Constant
Bit rate : 192 kb/s
Channel(s) : 2 channels
Channel layout : L R
Sampling rate : 48.0 kHz
Frame rate : 31.250 FPS (1536 SPF)
Bit depth : 16 bits
Compression mode : Lossy
Stream size : 120 MiB (8%)
Service kind : Complete Main
Default : Yes
Forced : No

pb.wtf



Скачать Точка возврата через торрент https://i106.fastpic.ru/big/2018/1221/5f/419c66e95965a983c7f510beffc0e95f.jpg Скачать фильм Точка возврата через торрент бесплантно в хорошем качестве Описание: Дерзкое ограбление инкассаторской машины стало самым громким преступлением в городе. Главную тайну - где спрятаны украденные ... 8.8 10 16
Торрент: Зарегистрирован [2019-02-15 15:32] · скачан: 255 раз
Статус: T временная
Размер: 1.53 GB
Как cкачать? Как скачать Точка возврата через торрент | qTorrent

% Раздел Тема Автор DL S | L
T Фильмы [HD 720p, 1080p] (Хороший звук DUB, MVO) [ 6.67 GB ] Точка возврата / Backtrace [2018 BDRip 1080p] MVO [HDrezka Studio] bober100 Скачать
1 | 0
Отключить всю рекламу на сайте
    Дорогой пользователь! Огромная просьба, поблагодарите релизера, оцените раздачу и оставьте свои комментарий, если Вы скачали Точка возврата через торрент бесплатно! Внесите свою лепту в развитие PiratBit!
    Комментировать посты могут только пользователи прошедшие не сложную регистрацию
    Показать сообщения:    

    Точка возврата через торрент
    Скачать бесплатно Точка возврата
    Точка возврата скачать торрент
    Точка возврата смотреть онлайн
    Cкачать фильм Точка возврата бесплатно
    Точка возврата скачать торрент в хорошем качестве
    Точка возврата смотреть онлайн бесплатно в хорошем качестве


    Вы не можете начинать темы
    Вы не можете отвечать на сообщения
    Вы не можете редактировать свои сообщения
    Вы не можете удалять свои сообщения
    Вы не можете голосовать в опросах
    Вы не можете прикреплять файлы к сообщениям
    Вы можете скачивать файлы