Ссылка на приватное зеркало всего за 1$. Внимание количество ограничено!!!

OK

1+1

iTunes

мы

OK

1

WEB-DLRip

Джокер

Пифагор

Ведьмак / The Witcher сериал

Лицензия

ПШазам

ОК

Оно 2

iTunes

30
pack

Вам бонус

ВАЖНО

!!Акция!!

Alien_RageХит недели

RePack

Resident Evil 21

ИГРА 18+

pack

RePack

jed

!!Акция!!

Alien_Rage

RePack

fifa19

RePack

Assassins Creed: Odyssey

RePack

NEED FOR SPEED™ PAYBACK

4 сезон

9 сезон

Бесстыжие 9 сезон

Все сериалы

все сериалы на PB.wtf

RePack

FAR CRY 5
  

Проклятый ребёнок / Bayi Gaib (Ризал Мантовани) [2018, Ужасы, WEB-DL 720p] MVO [КОЛОБОК] pb.wtf

Проклятый ребёнок через торрент pb.wtf

Размер: 2.94 GB | Добавлен: 11 мес. назад | Торрент скачан:48 раз
Скачать  

15-02-2019 18:12 Проклятый ребёнок Скачать торрент  

Проклятый ребёнок / Bayi GaibГод выпуска: 2018
Страна: Индонезия
Жанр: Ужасы
Продолжительность: 01:28:16
Перевод: Любительский (многоголосый) | КОЛОБОК
Субтитры: отсутствуют

Режиссер: Ризал Мантовани



В ролях:

Ашраф Синклер, Рианти Картрайт, Марио Лавалата, Фадика Рояндиm, Рина Хасим

Описание:

Муж с беременной женой переезжают в новый большой дом, не подозревая, что те, кто завидуют их счастью и не хотят, чтобы они были вместе и пойдут на любые козни, чтобы разрушить их идиллию. И вот, прожив какое-то время в благополучии, после рождения ребенка, с парой начинают происходить странные вещи...

Качество: WEB-DL 720p
Формат: MKV

Видео: h.264,4 387 Кбит/с, 1280x720
Аудио#1: Русский, (AC3, 2 ch, 384 Кбит/с)
скриншот  скриншот  скриншот  

Общее
Уникальный идентификатор : 174892977187224821267602608932199254393 (0x83932984CFB752A0972609B4B2A2C979)
Полное имя : D:\Bayi.Gaib.2018.Pk.WEB-DL.72Op.mkv
Формат : Matroska
Версия формата : Version 2
Размер файла : 2,94 Гбайт
Продолжительность : 1 ч. 28 м.
Режим общего битрейта : Переменный
Общий поток : 4773 Кбит/сек
Дата кодирования : UTC 2019-02-15 16:30:18
Программа кодирования : mkvmerge v8.3.0 ('Over the Horizon') 64bit
Библиотека кодирования : libebml v1.3.1 + libmatroska v1.4.2

Видео
Идентификатор : 1
Формат : AVC
Формат/Информация : Advanced Video Codec
Профиль формата : High@L4.1
Параметр CABAC формата : Да
Параметр RefFrames формата : 4 кадра
Идентификатор кодека : V_MPEG4/ISO/AVC
Продолжительность : 1 ч. 28 м.
Вид битрейта : Переменный
Битрейт : 4387 Кбит/сек
Максимальный битрейт : 5000 Кбит/сек
Ширина : 1280 пикселей
Высота : 720 пикселей
Соотношение сторон : 16:9
Режим частоты кадров : Постоянный
Частота кадров : 23,976 (24000/1001) кадра/сек
Стандарт вещания : Component
Цветовое пространство : YUV
Субдискретизация насыщенности : 4:2:0
Битовая глубина : 8 бит
Тип развёртки : Прогрессивная
Бит/(Пиксели*Кадры) : 0.194
Размер потока : 2,65 Гбайт (90%)
Default : Да
Forced : Нет
Цветовой диапазон : Limited
Основные цвета : BT.709
Характеристики трансфера : BT.709
Коэффициенты матрицы : BT.709

Аудио
Идентификатор : 2
Формат : AC-3
Формат/Информация : Audio Coding 3
Расширение режима : CM (complete main)
Параметр Endianness формата : Big
Идентификатор кодека : A_AC3
Продолжительность : 1 ч. 28 м.
Вид битрейта : Постоянный
Битрейт : 384 Кбит/сек
Каналы : 2 канала
Расположение каналов : Front: L R
Частота : 48,0 КГц
Частота кадров : 31,250 кадров/сек (1536 spf)
Метод сжатия : С потерями
Размер потока : 242 Мбайт (8%)
Default : Да
Forced : Нет

pb.wtf



Скачать Проклятый ребёнок через торрент https://b.radikal.ru/b21/1902/be/9971fdae962c.jpg Скачать фильм Проклятый ребёнок через торрент бесплантно в хорошем качестве Описание: Муж с беременной женой переезжают в новый большой дом, не подозревая, что те, кто завидуют их счастью и не хотят, чтобы они были ... 8 10 4
Торрент: Зарегистрирован [2019-02-15 18:12] · скачан: 48 раз
Статус: T временная
Размер: 2.94 GB
Как cкачать? Как скачать Проклятый ребёнок через торрент | qTorrent

% Раздел Тема Автор DL S | L
T Фильмы (мультфильмы) cо спонсором показа (Новинки AVI/MKV) [ 1.37 GB ] Проклятый ребёнок / Bayi Gaib [2018 WEB-DLRip] MVO [КОЛОБОК] bober100 Скачать
2 | 0

28-11-2019 20:33  

Отключить всю рекламу на сайте

16-02-2019 06:41 Проклятый ребёнок Скачать торрент  

очень плохой фильм! гл.героиня все портит своей ужасной игрой! не рекомендую к просмотру!pb.wtf



    Дорогой пользователь! Огромная просьба, поблагодарите релизера, оцените раздачу и оставьте свои комментарий, если Вы скачали Проклятый ребёнок через торрент бесплатно! Внесите свою лепту в развитие PiratBit!
    Комментировать посты могут только пользователи прошедшие не сложную регистрацию
    Показать сообщения:    

    Проклятый ребёнок через торрент
    Скачать бесплатно Проклятый ребёнок
    Проклятый ребёнок скачать торрент
    Проклятый ребёнок смотреть онлайн
    Cкачать фильм Проклятый ребёнок бесплатно
    Проклятый ребёнок скачать торрент в хорошем качестве
    Проклятый ребёнок смотреть онлайн бесплатно в хорошем качестве


    Вы не можете начинать темы
    Вы не можете отвечать на сообщения
    Вы не можете редактировать свои сообщения
    Вы не можете удалять свои сообщения
    Вы не можете голосовать в опросах
    Вы не можете прикреплять файлы к сообщениям
    Вы можете скачивать файлы