Ссылка на приватное зеркало всего за 1$. Внимание количество ограничено!!!

OK

1+1

iTunes

мы

OK

1

WEB-DLRip

Джокер

Пифагор

Ведьмак / The Witcher сериал

iTunes

ПШазам

ОК

Оно 2

iTunes

30
pack

Вам бонус

ВАЖНО

!!Акция!!

Alien_RageХит недели

RePack

Resident Evil 21

ИГРА 18+

pack

RePack

jed

RePack

fifa19

RePack

Assassins Creed: Odyssey

RePack

NEED FOR SPEED™ PAYBACK

4 сезон

9 сезон

Бесстыжие 9 сезон

Все сериалы

все сериалы на PB.wtf

RePack

FAR CRY 5
  

Королевская зима / A Royal Winter (Эрни Барбараш) [2017, фэнтези, драма, мелодрама, семейный, WEB-DL 720p] MVO ["Синема УС"] pb.wtf

Королевская зима через торрент pb.wtf

Размер: 2.88 GB | Добавлен: 11 мес. назад | Торрент скачан:22 раза
Скачать  

15-02-2019 18:29 Королевская зима Скачать торрент  

Королевская зима / A Royal WinterГод выпуска: 2017
Страна: США
Жанр: фэнтези, драма, мелодрама, семейный
Продолжительность: 01:24:57
Перевод: Любительский (многоголосый) | "Синема УС"
Субтитры: отсутствуют

Режиссер: Эрни Барбараш

rating

В ролях:

Мерритт Паттерсон, Джек Доннелли, Саманта Бонд, Ри Бэйли, Киэн Бэрри, Крис Бауэн, Райан Эллсворт, Дикси Эгериккс, Рой МакКрири, Сюанн Браун

Описание:

Во время отпуска в Европе одна девушка попадает в сказку, когда одно нечаянное знакомство перерастает во что-то большее.

Качество: WEB-DL 720p
Формат: MKV

Видео: 4 466 kb/s, 1280x720
Аудио#1: Русский, (AC3, 2 ch, 384 Кбит/с)
скриншот  скриншот  скриншот  

Общее
Уникальный идентификатор : 179520931909565495071067401631269129897 (0x870E794DA304C22893D922F8F2300EA9)
Полное имя : D:\A.Royal.Winter.2017.P.WEB-DL.72Op_KOSHARA.mkv
Формат : Matroska
Версия формата : Version 2
Размер файла : 2,88 Гбайт
Продолжительность : 1 ч. 24 м.
Режим общего битрейта : Переменный
Общий поток : 4852 Кбит/сек
Дата кодирования : UTC 2019-02-15 16:01:57
Программа кодирования : mkvmerge v8.3.0 ('Over the Horizon') 64bit
Библиотека кодирования : libebml v1.3.1 + libmatroska v1.4.2

Видео
Идентификатор : 1
Формат : AVC
Формат/Информация : Advanced Video Codec
Профиль формата : High@L4.1
Параметр CABAC формата : Да
Параметр RefFrames формата : 4 кадра
Идентификатор кодека : V_MPEG4/ISO/AVC
Продолжительность : 1 ч. 24 м.
Вид битрейта : Переменный
Битрейт : 4466 Кбит/сек
Максимальный битрейт : 5000 Кбит/сек
Ширина : 1280 пикселей
Высота : 720 пикселей
Соотношение сторон : 16:9
Режим частоты кадров : Постоянный
Частота кадров : 23,976 (24000/1001) кадра/сек
Стандарт вещания : Component
Цветовое пространство : YUV
Субдискретизация насыщенности : 4:2:0
Битовая глубина : 8 бит
Тип развёртки : Прогрессивная
Бит/(Пиксели*Кадры) : 0.198
Размер потока : 2,59 Гбайт (90%)
Default : Да
Forced : Нет
Цветовой диапазон : Limited
Основные цвета : BT.709
Характеристики трансфера : BT.709
Коэффициенты матрицы : BT.709

Аудио
Идентификатор : 2
Формат : AC-3
Формат/Информация : Audio Coding 3
Расширение режима : CM (complete main)
Параметр Endianness формата : Big
Идентификатор кодека : A_AC3
Продолжительность : 1 ч. 24 м.
Вид битрейта : Постоянный
Битрейт : 384 Кбит/сек
Каналы : 2 канала
Расположение каналов : Front: L R
Частота : 48,0 КГц
Частота кадров : 31,250 кадров/сек (1536 spf)
Метод сжатия : С потерями
Размер потока : 233 Мбайт (8%)
Default : Да
Forced : Нет

pb.wtf



Скачать Королевская зима через торрент https://d.radikal.ru/d05/1902/2e/9db57d4d3f5a.jpg Скачать фильм Королевская зима через торрент бесплантно в хорошем качестве Описание: Во время отпуска в Европе одна девушка попадает в сказку, когда одно нечаянное знакомство перерастает во что-то ... 10 10 2
Торрент: Зарегистрирован [2019-02-15 18:29] · скачан: 22 раз
Статус: T временная
Размер: 2.88 GB
Как cкачать? Как скачать Королевская зима через торрент | qTorrent

% Раздел Тема Автор DL S | L
T Фильмы (мультфильмы) cо спонсором показа (Новинки AVI/MKV) [ 1.37 GB ] Королевская зима / A Royal Winter [2017 WEB-DLRip] MVO ["Синема УС"] bober100 Скачать
1 | 0

28-11-2019 20:33  

Отключить всю рекламу на сайте

    Дорогой пользователь! Огромная просьба, поблагодарите релизера, оцените раздачу и оставьте свои комментарий, если Вы скачали Королевская зима через торрент бесплатно! Внесите свою лепту в развитие PiratBit!
    Комментировать посты могут только пользователи прошедшие не сложную регистрацию
    Показать сообщения:    

    Королевская зима через торрент
    Скачать бесплатно Королевская зима
    Королевская зима скачать торрент
    Королевская зима смотреть онлайн
    Cкачать фильм Королевская зима бесплатно
    Королевская зима скачать торрент в хорошем качестве
    Королевская зима смотреть онлайн бесплатно в хорошем качестве


    Вы не можете начинать темы
    Вы не можете отвечать на сообщения
    Вы не можете редактировать свои сообщения
    Вы не можете удалять свои сообщения
    Вы не можете голосовать в опросах
    Вы не можете прикреплять файлы к сообщениям
    Вы можете скачивать файлы