Ссылка на приватное зеркало всего за 1$. Внимание количество ограничено!!!

OK

1+1

iTunes

мы

OK

1

WEB-DLRip

Джокер

Пифагор

Ведьмак / The Witcher сериал

iTunes

ПШазам

ОК

Оно 2

iTunes

30
pack

Вам бонус

ВАЖНО

!!Акция!!

Alien_RageХит недели

RePack

Resident Evil 21

ИГРА 18+

pack

RePack

jed

RePack

fifa19

RePack

Assassins Creed: Odyssey

RePack

NEED FOR SPEED™ PAYBACK

4 сезон

9 сезон

Бесстыжие 9 сезон

Все сериалы

все сериалы на PB.wtf

RePack

FAR CRY 5
  

История о нас / The Story of Us (Скотт Смит) [2019, Мелодрама, комедия, HDTVRip 720p] MVO ["Синема УС"] pb.wtf

История о нас через торрент pb.wtf

Размер: 2.89 GB | Добавлен: 11 мес. назад | Торрент скачан:25 раз
Скачать  

15-02-2019 19:13 История о нас Скачать торрент  

История о нас / The Story of UsГод выпуска: 2019
Страна: США
Жанр: Мелодрама, комедия
Продолжительность: 01:24:48
Перевод: Любительский (многоголосый) | "Синема УС"
Субтитры: отсутствуют

Режиссер: Скотт Смит

rating

В ролях:

Мэгги Лоусон, Сэм Пейдж, Марко Граццини, Зибби Аллен, Фрэнсис Фланаган, Дженни Митчелл, Джей Хиндл, Андреа Росолия, Адриан Неблетт, Оскар Райли, Корина Аксон, Вонита Джой, Мария Виейра, Джон Хан, Джаг Бал

Описание:

Джейми узнает, что ее первая любовь Сойер О’Дэлл - архитектор плана переустройства любимого города, в котором не будет места ее книжному магазину. Поможет ли День святого Валентина найти верное решение?

Качество: HDTVRip 720p
Формат: MKV

Видео: h.264, 4 498 kb/s, 1280x720
Аудио#1: Русский, (AC3, 2 ch, 384 Кбит/с)
скриншот  скриншот  скриншот  

Общее
Уникальный идентификатор : 220250081021050267665865090871062582796 (0xA5B29F64A0D655E28961ADA811C2560C)
Полное имя : D:\The.story.of.us.2019.P.HDTV.72Op_KOSHARA.mkv
Формат : Matroska
Версия формата : Version 2
Размер файла : 2,89 Гбайт
Продолжительность : 1 ч. 24 м.
Режим общего битрейта : Переменный
Общий поток : 4884 Кбит/сек
Дата кодирования : UTC 2019-02-15 08:09:08
Программа кодирования : mkvmerge v8.3.0 ('Over the Horizon') 64bit
Библиотека кодирования : libebml v1.3.1 + libmatroska v1.4.2

Видео
Идентификатор : 1
Формат : AVC
Формат/Информация : Advanced Video Codec
Профиль формата : High@L4.1
Параметр CABAC формата : Да
Параметр RefFrames формата : 4 кадра
Идентификатор кодека : V_MPEG4/ISO/AVC
Продолжительность : 1 ч. 24 м.
Вид битрейта : Переменный
Битрейт : 4498 Кбит/сек
Максимальный битрейт : 5000 Кбит/сек
Ширина : 1280 пикселей
Высота : 720 пикселей
Соотношение сторон : 16:9
Режим частоты кадров : Постоянный
Частота кадров : 23,976 (24000/1001) кадра/сек
Стандарт вещания : Component
Цветовое пространство : YUV
Субдискретизация насыщенности : 4:2:0
Битовая глубина : 8 бит
Тип развёртки : Прогрессивная
Бит/(Пиксели*Кадры) : 0.199
Размер потока : 2,61 Гбайт (90%)
Default : Да
Forced : Нет
Цветовой диапазон : Limited
Основные цвета : BT.709
Характеристики трансфера : BT.709
Коэффициенты матрицы : BT.709

Аудио
Идентификатор : 2
Формат : AC-3
Формат/Информация : Audio Coding 3
Расширение режима : CM (complete main)
Параметр Endianness формата : Big
Идентификатор кодека : A_AC3
Продолжительность : 1 ч. 24 м.
Вид битрейта : Постоянный
Битрейт : 384 Кбит/сек
Каналы : 2 канала
Расположение каналов : Front: L R
Частота : 48,0 КГц
Частота кадров : 31,250 кадров/сек (1536 spf)
Метод сжатия : С потерями
Размер потока : 233 Мбайт (8%)
Default : Да
Forced : Нет

pb.wtf



Скачать История о нас через торрент https://d.radikal.ru/d27/1902/58/f5862bdd2e87.jpg Скачать фильм История о нас через торрент бесплантно в хорошем качестве Описание: Джейми узнает, что ее первая любовь Сойер О’Дэлл - архитектор плана переустройства любимого города, в котором не будет места ее ... 10 10 2
Торрент: Зарегистрирован [2019-02-15 19:13] · скачан: 25 раз
Статус: T временная
Размер: 2.89 GB
Как cкачать? Как скачать История о нас через торрент | qTorrent

% Раздел Тема Автор DL S | L
Фильмы [HD 720p, 1080p] (Хороший звук DUB, MVO) [ 11.55 GB ] История о нас / The Story Of Us [1999 BDRip 1080p by msltel] DUB 2 x AVO msltel Скачать
1 | 0
Фильмы [HD 720p, 1080p] (Хороший звук DUB, MVO) [ 5.38 GB ] История о нас / The Story Of Us [1999 BDRip 720p by msltel] DUB 2 x AVO msltel Скачать
1 | 0
T Фильмы (мультфильмы) cо спонсором показа (Новинки AVI/MKV) [ 1.37 GB ] История о нас / The Story of Us [2019 Мело HDTVRip] MVO ["Синема УС"] bober100 Скачать
1 | 0
National Geographic [ 6.97 GB ] National Geographic: История о нас с Морганом Фрименом / The Story of Us with Morgan Freem / Серии: 1-6 из 6 [2017 документальный DVB] VO bober100 Скачать
1 | 0
Фильмы с авторской озвучкой [ 2.06 GB ] История о нас / The Story of Us [1999 DVDRip] 2x[AVO] killermax2013 Скачать
1 | 0

28-11-2019 20:33  

Отключить всю рекламу на сайте

    Дорогой пользователь! Огромная просьба, поблагодарите релизера, оцените раздачу и оставьте свои комментарий, если Вы скачали История о нас через торрент бесплатно! Внесите свою лепту в развитие PiratBit!
    Комментировать посты могут только пользователи прошедшие не сложную регистрацию
    Показать сообщения:    

    История о нас через торрент
    Скачать бесплатно История о нас
    История о нас скачать торрент
    История о нас смотреть онлайн
    Cкачать фильм История о нас бесплатно
    История о нас скачать торрент в хорошем качестве
    История о нас смотреть онлайн бесплатно в хорошем качестве


    Вы не можете начинать темы
    Вы не можете отвечать на сообщения
    Вы не можете редактировать свои сообщения
    Вы не можете удалять свои сообщения
    Вы не можете голосовать в опросах
    Вы не можете прикреплять файлы к сообщениям
    Вы можете скачивать файлы