Ссылка на приватное зеркало всего за 1$. Внимание количество ограничено!!!

OK

1+1

iTunes

мы

OK

1

WEB-DLRip

Джокер

Пифагор

Ведьмак / The Witcher сериал

Лицензия

ПШазам

ОК

Оно 2

iTunes

30
pack

Вам бонус

ВАЖНО

!!Акция!!

Alien_RageХит недели

RePack

Resident Evil 21

ИГРА 18+

pack

RePack

jed

!!Акция!!

Alien_Rage

RePack

fifa19

RePack

Assassins Creed: Odyssey

RePack

NEED FOR SPEED™ PAYBACK

4 сезон

9 сезон

Бесстыжие 9 сезон

Все сериалы

все сериалы на PB.wtf

RePack

FAR CRY 5
  

Точка возврата / Backtrace (Брайан А. Миллер) [2018, Драма, криминал, BDRip 1080p] MVO [HDrezka Studio] pb.wtf

Точка возврата через торрент pb.wtf

Размер: 6.67 GB | Добавлен: 11 мес. назад | Торрент скачан:165 раз
Скачать  

15-02-2019 20:08 Точка возврата Скачать торрент  

Точка возврата / Backtrace Год выпуска: 2018
Страна: Канада, США
Жанр: Драма, криминал
Продолжительность: 01:27:29
Перевод: Профессиональный (многоголосый) | HDrezka Studio
Субтитры: aнглийские

Режиссер: Брайан А. Миллер

rating

В ролях:

Сильвестр Сталлоне, Райан Гузман, Мэттью Модайн, Медоу Уильямс, Кристофер МакДональд, Колин Эглсфилд, Байли Каррен, Лидия Халл, Свен Теммел, Хезер Йохансен

Описание:

Дерзкое ограбление инкассаторской машины стало самым громким преступлением в городе. Главную тайну - где спрятаны украденные деньги - сможет раскрыть только единственный выживший после заварухи преступник. Но есть один нюанс: он полностью потерял память. Раскрыть преступление поможет экспериментальное вещество: грабитель, изучая глубины своего разума, и коп, следующий за ним, должны прийти к точке возврата. Точке, где всё началось и должно закончиться.

Качество: BDRip 1080p
Формат: MKV

Видео: MPEG-4 AVC, 9210 Kбит/с, 1920x1040, 23.976 кадр/с
Аудио#1: Русский ( АС3, 2ch, 192 Кбит/с, 48.0 KHz) Профессиональный (многоголосый, закадровый) HDRezka Studio
Аудио#2: Английский ( DTS, 6ch, 1509 Кбит/с, 48.0 KHz)
скриншот  скриншот  скриншот  скриншот  

Источник: Backtrace.2018.1080p.BluRay.x264-SADPANDA
General
Unique ID : 216336663922819785385604962493044143538 (0xA2C0ED088DEC8D96A0B735FE6D58B5B2)
Complete name : Backtrace.2018.BDRip.1080p.mkv
Format : Matroska
Format version : Version 4 / Version 2
File size : 6.67 GiB
Duration : 1 h 27 min
Overall bit rate : 10.9 Mb/s
Encoded date : UTC 2019-02-15 17:27:23
Writing application : mkvmerge v7.1.0 ('Good Love') 64bit built on Jul 27 2014 13:06:55
Writing library : libebml v1.3.0 + libmatroska v1.4.1

Video
ID : 1
Format : AVC
Format/Info : Advanced Video Codec
Format profile : High@L4.1
Format settings, CABAC : Yes
Format settings, RefFrames : 4 frames
Codec ID : V_MPEG4/ISO/AVC
Duration : 1 h 27 min
Bit rate : 9 210 kb/s
Width : 1 920 pixels
Height : 1 040 pixels
Display aspect ratio : 1.85:1
Frame rate mode : Constant
Frame rate : 23.976 (24000/1001) FPS
Color space : YUV
Chroma subsampling : 4:2:0
Bit depth : 8 bits
Scan type : Progressive
Bits/(Pixel*Frame) : 0.192
Stream size : 5.63 GiB (84%)
Writing library : x264 core 157 r2935 545de2f
Encoding settings : cabac=1 / ref=4 / deblock=1:-3:-3 / analyse=0x3:0x113 / me=umh / subme=8 / psy=1 / psy_rd=1.00:0.25 / mixed_ref=1 / me_range=24 / chroma_me=1 / trellis=1 / 8x8dct=1 / cqm=0 / deadzone=21,11 / fast_pskip=1 / chroma_qp_offset=-4 / threads=30 / lookahead_threads=5 / sliced_threads=0 / nr=0 / decimate=1 / interlaced=0 / bluray_compat=0 / constrained_intra=0 / bframes=3 / b_pyramid=2 / b_adapt=1 / b_bias=0 / direct=3 / weightb=1 / open_gop=0 / weightp=2 / keyint=240 / keyint_min=24 / scenecut=40 / intra_refresh=0 / rc_lookahead=50 / rc=2pass / mbtree=1 / bitrate=9210 / ratetol=1.0 / qcomp=0.60 / qpmin=0 / qpmax=69 / qpstep=4 / cplxblur=20.0 / qblur=0.5 / ip_ratio=1.40 / aq=1:0.75
Language : English
Default : Yes
Forced : No

Audio #1
ID : 2
Format : AC-3
Format/Info : Audio Coding 3
Format settings, Endianness : Big
Codec ID : A_AC3
Duration : 1 h 27 min
Bit rate mode : Constant
Bit rate : 192 kb/s
Channel(s) : 2 channels
Channel positions : Front: L R
Sampling rate : 48.0 kHz
Frame rate : 31.250 FPS (1536 SPF)
Bit depth : 16 bits
Compression mode : Lossy
Delay relative to video : 150 ms
Stream size : 120 MiB (2%)
Title : MVO | HDRezka Studio
Language : Russian
Service kind : Complete Main
Default : Yes
Forced : No

Audio #2
ID : 3
Format : DTS
Format/Info : Digital Theater Systems
Mode : 16
Format settings, Endianness : Big
Codec ID : A_DTS
Duration : 1 h 27 min
Bit rate mode : Constant
Bit rate : 1 509 kb/s
Channel(s) : 6 channels
Channel positions : Front: L C R, Side: L R, LFE
Sampling rate : 48.0 kHz
Frame rate : 93.750 FPS (512 SPF)
Bit depth : 24 bits
Compression mode : Lossy
Stream size : 944 MiB (14%)
Language : English
Default : No
Forced : No

Text #1
ID : 4
Format : UTF-8
Codec ID : S_TEXT/UTF8
Codec ID/Info : UTF-8 Plain Text
Duration : 1 h 20 min
Bit rate : 43 b/s
Count of elements : 825
Stream size : 25.8 KiB (0%)
Language : English
Default : No
Forced : No

Text #2
ID : 5
Format : UTF-8
Codec ID : S_TEXT/UTF8
Codec ID/Info : UTF-8 Plain Text
Duration : 1 h 20 min
Bit rate : 48 b/s
Count of elements : 930
Stream size : 28.4 KiB (0%)
Title : SDH
Language : English
Default : No
Forced : No

Menu
00:00:00.000 : en:Chapter 01
00:08:52.782 : en:Chapter 02
00:12:46.766 : en:Chapter 03
00:18:55.134 : en:Chapter 04
00:21:48.515 : en:Chapter 05
00:29:24.096 : en:Chapter 06
00:33:09.446 : en:Chapter 07
00:37:35.044 : en:Chapter 08
00:43:24.352 : en:Chapter 09
00:49:42.062 : en:Chapter 10
00:56:37.227 : en:Chapter 11
01:01:12.711 : en:Chapter 12
01:05:37.392 : en:Chapter 13
01:12:37.186 : en:Chapter 14
01:20:35.706 : en:Chapter 15
01:23:26.626 : en:Chapter 16

pb.wtf



Скачать Точка возврата через торрент https://i106.fastpic.ru/big/2018/1221/5f/419c66e95965a983c7f510beffc0e95f.jpg Скачать фильм Точка возврата через торрент бесплантно в хорошем качестве Описание: Дерзкое ограбление инкассаторской машины стало самым громким преступлением в городе. Главную тайну - где спрятаны украденные ... 9.3 10 8
Торрент: Зарегистрирован [2019-02-15 20:08] · скачан: 165 раз
Статус: T временная
Размер: 6.67 GB
Как cкачать? Как скачать Точка возврата через торрент | qTorrent

% Раздел Тема Автор DL S | L
T Фильмы 2018 [DVDrip, WEB-DLRip, HDrip] (DUB, MVO) [ 1.53 GB ] Точка возврата / Backtrace [2018 WEB-DLRip-AVC] MVO [HDrezka Studio] bober100 Скачать
3 | 0

28-11-2019 20:33  

Отключить всю рекламу на сайте

20-03-2019 12:02 Точка возврата Скачать торрент  

когда айтюнс то будет вроде уже давно вышелpb.wtf



    Дорогой пользователь! Огромная просьба, поблагодарите релизера, оцените раздачу и оставьте свои комментарий, если Вы скачали Точка возврата через торрент бесплатно! Внесите свою лепту в развитие PiratBit!
    Комментировать посты могут только пользователи прошедшие не сложную регистрацию
    Показать сообщения:    

    Точка возврата через торрент
    Скачать бесплатно Точка возврата
    Точка возврата скачать торрент
    Точка возврата смотреть онлайн
    Cкачать фильм Точка возврата бесплатно
    Точка возврата скачать торрент в хорошем качестве
    Точка возврата смотреть онлайн бесплатно в хорошем качестве


    Вы не можете начинать темы
    Вы не можете отвечать на сообщения
    Вы не можете редактировать свои сообщения
    Вы не можете удалять свои сообщения
    Вы не можете голосовать в опросах
    Вы не можете прикреплять файлы к сообщениям
    Вы можете скачивать файлы