новый адрес пиратбит piratbit
Мега распродажа FORZA HORIZON 4 ULTIMATE+ВСЕ DLC+ОНЛАЙН всего за 499р. 349 руб. (супер цена). Внимание количество ограничено!!!

iTunes

1+1

iTunes

мы

iTunes

1

iTunes

Чернобыль

iTunes

Ральф против интернета

Лицензия

ПШазам

Лицензия

Игра престолов

Лицензия

30
pack

ВАЖНО

!!Акция!!

Alien_RageХит недели

RePack

Resident Evil 21

ИГРА 18+

pack

RePack

Metro:Exodus

!!Акция!!

Alien_Rage

RePack

fifa19

RePack

Assassins Creed: Odyssey

RePack

NEED FOR SPEED™ PAYBACK

3 сезон

9 сезон

Бесстыжие 9 сезон

Все сериалы

все сериалы на PB.wtf

RePack

FAR CRY 5
Ребята, катастрофически не хватает 1900р. для оплаты серверов за Октябрь (всвязи с блокировками трафик упал в 3 раза), 1-2р., выручайте.
  

Только не сейчас (Евгений Райковский, Борис Степанцев) [1962, СССР, мультфильм, короткометражка, SATRip от AVP Studio] pb.wtf

Только не сейчас через торрент pb.wtf

Размер: 373 MB | Добавлен: 9 мес. назад | Торрент скачан:8 раз
Скачать  

16-02-2019 09:43 Только не сейчас Скачать торрент  

Только не сейчас
Страна: СССР
Производство: Союзмультфильм

Жанр: мультфильм, короткометражка
Год выпуска: 1962
Продолжительность: 00:34:40

Перевод: Не требуется
Cубтитры: нет
Оригинальная аудиодорожка: русский

Режиссер: Евгений Райковский, Борис Степанцев

В ролях и озвучивали:
Тамара Трушина, Юрий Минин, Володя Позднеев...
Об актёрах подробней

Описание:
Целое лето Петя Иванов смотрел вечерами телевизор и на все уговоры матери заняться подготовкой к переэкзаменовке по истории твердил одно: "Сейчас, сейчас". И вот завтра экзамен, а Петя ничего не знает. Но перед изумленным Петиным взором вдруг предстал великий повелитель времени "Сейчас" в образе песочных часов и обещал назавтра помочь Пете.

Исходник: DVB
Качество видео: SATRip
Формат видео: AVI

Видео: 704x528 (4:3), 25,000 кадров/сек, XviD ~ 1301 kbps avg, 0.140 bit/pixel
Аудио: 48 kHz, Dolby Digital AC3 2.0, 192 kbps

Раздача от:
Общее
Полное имя : Tolko.ne.seychas!1962.SATRip_[New-team]_by_AVP_Studio.avi
Формат : AVI
Формат/Информация : Audio Video Interleave
Размер файла : 373 Мбайт
Продолжительность : 34 м. 40 с.
Общий поток : 1503 Кбит/сек
Программа кодирования : VirtualDubMod 1.5.10.3 | www.virtualdub-fr.org || (build 2550/release)
Библиотека кодирования : VirtualDubMod build 2550/release

Видео
Идентификатор : 0
Формат : MPEG-4 Visual
Профиль формата : Advanced Simple@L5
Настройки формата : BVOP1 / Custom Matrix
Параметр BVOP формата : 1
Параметр QPel формата : Нет
Параметр GMC формата : Без точки перехода
Параметр матрицы формата : Выборочная
Идентификатор кодека : XVID
Идентификатор кодека/Подсказка : XviD
Продолжительность : 34 м. 40 с.
Битрейт : 1301 Кбит/сек
Ширина : 704 пикселя
Высота : 528 пикселей
Соотношение сторон : 4:3
Частота кадров : 25,000 кадров/сек
Цветовое пространство : YUV
Субдискретизация насыщенности : 4:2:0
Битовая глубина : 8 бит
Тип развёртки : Прогрессивная
Метод сжатия : С потерями
Бит/(Пиксели*Кадры) : 0.140
Размер потока : 323 Мбайт (87%)
Библиотека кодирования : XviD 73

Аудио
Идентификатор : 1
Формат : AC-3
Формат/Информация : Audio Coding 3
Коммерческое название : Dolby Digital
Идентификатор кодека : 2000
Продолжительность : 34 м. 40 с.
Вид битрейта : Постоянный
Битрейт : 192 Кбит/сек
Каналы : 2 канала
Channel layout : L R
Частота : 48,0 КГц
Частота кадров : 31,250 кадров/сек (1536 SPF)
Битовая глубина : 16 бит
Метод сжатия : С потерями
Размер потока : 47,6 Мбайт (13%)
Выравнивание : Разделение по промежуткам
Продолжительность промежутка : 40 мс. (1,00 видеокадр)
Время предзагрузки промежутка : 500 мс
pb.wtf



Скачать Только не сейчас через торрент http://picplus.ru/img/1902/16/db2ccce3.png Скачать фильм Только не сейчас через торрент бесплантно в хорошем качестве Описание:Целое лето Петя Иванов смотрел вечерами телевизор и на все уговоры матери заняться подготовкой к переэкзаменовке по истории ... 10 10 2
Торрент: Зарегистрирован [2019-02-16 09:43] · скачан: 8 раз
Статус: √ проверено
Размер: 373 MB
Как cкачать? Как скачать Только не сейчас через торрент | qTorrent

% Раздел Тема Автор DL S | L
Короткометражные мультфильмы [ 372 MB ] Только не сейчас [1962 СССР мультфильм короткометражка SATRip-AVC от AVP Studio] AVP Studio Скачать
1 | 0
Наши фильмы 2010-2011 [ 1.28 GB ] Только не сейчас [2010 Мело DVDRip Оригинал] кэп Скачать
1 | 0


>> Регистрируемся здесь <<






Отзывы и комментарии о схеме читаем и пишем здесь: ---> Отзывы и комментарии о схеме

Новые благодарочки в телеграм довольных пользователей:
скриншот   скриншот   скриншот   скриншот   скриншот
    Дорогой пользователь! Огромная просьба, поблагодарите релизера, оцените раздачу и оставьте свои комментарий, если Вы скачали Только не сейчас через торрент бесплатно! Внесите свою лепту в развитие PiratBit!
    Комментировать посты могут только пользователи прошедшие не сложную регистрацию
    Показать сообщения:    

    Только не сейчас через торрент
    Скачать бесплатно Только не сейчас
    Только не сейчас скачать торрент
    Только не сейчас смотреть онлайн
    Cкачать фильм Только не сейчас бесплатно
    Только не сейчас скачать торрент в хорошем качестве
    Только не сейчас смотреть онлайн бесплатно в хорошем качестве


    Вы не можете начинать темы
    Вы не можете отвечать на сообщения
    Вы не можете редактировать свои сообщения
    Вы не можете удалять свои сообщения
    Вы не можете голосовать в опросах
    Вы не можете прикреплять файлы к сообщениям
    Вы можете скачивать файлы