Ссылка на приватное зеркало нашего сайта всего за 1$. Внимание количество ограничено!!!

2 сезон

iTunes

1 сезон

1

iTunes

iTunes

iTunes

1 сезон

RePack

30

ИГРА 18+

pack

ВАЖНО

!!Акция!!

Alien_RageХит недели

RePack

MK11
pack

Забери бонус

RePack

jed

!!Акция!!

Alien_Rage

RePack

fifa19

RePack

Assassins Creed: Odyssey

RePack

NEED FOR SPEED™ PAYBACK

4 сезон

9 сезон

Бесстыжие 9 сезон

Все сериалы

все сериалы на PB.wtf

RePack

FAR CRY 5
  

Только не сейчас (Евгений Райковский, Борис Степанцев) [1962, СССР, мультфильм, короткометражка, SATRip-AVC от AVP Studio] pb.wtf

Только не сейчас через торрент pb.wtf

Размер: 372 MB | Добавлен: 1 год 8 мес. назад | Торрент скачан:20 раз
Скачать  

16-02-2019 09:45 Только не сейчас Скачать торрент  

Только не сейчас
Страна: СССР
Производство: Союзмультфильм

Жанр: мультфильм, короткометражка
Год выпуска: 1962
Продолжительность: 00:34:40

Перевод: Не требуется
Cубтитры: нет
Оригинальная аудиодорожка: русский

Режиссер: Евгений Райковский, Борис Степанцев

В ролях и озвучивали:
Тамара Трушина, Юрий Минин, Володя Позднеев...
Об актёрах подробней

Описание:
Целое лето Петя Иванов смотрел вечерами телевизор и на все уговоры матери заняться подготовкой к переэкзаменовке по истории твердил одно: "Сейчас, сейчас". И вот завтра экзамен, а Петя ничего не знает. Но перед изумленным Петиным взором вдруг предстал великий повелитель времени "Сейчас" в образе песочных часов и обещал назавтра помочь Пете.

Исходник: DVB
Качество видео: SATRip-AVC
Формат видео: MKV

Видео: 704->760x570 (4:3), 25,000 кадров/сек, H264 ~ 1307 kbps avg, 0.130 bit/pixel
Аудио: 48 kHz, Dolby Digital AC3 2.0, 192 kbps

Раздача от:
Общее
Полное имя : Tolko.ne.seychas!1962.SATRip-AVC_[New-team]_by_AVP_Studio.mkv
Формат : Matroska
Версия формата : Version 2
Размер файла : 372 Мбайт
Продолжительность : 34 м. 40 с.
Общий поток : 1500 Кбит/сек
Дата кодирования : UTC 2019-02-15 15:09:41
Программа кодирования : mkvmerge v6.1.0 ('Old Devil') built on Mar 4 2013 09:10:42
Библиотека кодирования : libebml v1.3.0 + libmatroska v1.4.0

Видео
Идентификатор : 1
Формат : AVC
Формат/Информация : Advanced Video Codec
Профиль формата : High@L4.1
Настройки формата : CABAC / 10 Ref Frames
Параметр CABAC формата : Да
Параметр RefFrames формата : 10 кадров
Идентификатор кодека : V_MPEG4/ISO/AVC
Продолжительность : 34 м. 40 с.
Битрейт : 1307 Кбит/сек
Ширина : 704 пикселя
Высота : 570 пикселей
Соотношение сторон : 4:3
Режим частоты кадров : Постоянный
Частота кадров : 25,000 кадров/сек
Цветовое пространство : YUV
Субдискретизация насыщенности : 4:2:0
Битовая глубина : 8 бит
Тип развёртки : Прогрессивная
Бит/(Пиксели*Кадры) : 0.130
Размер потока : 317 Мбайт (85%)
Библиотека кодирования : x264 core 157 r2932 303c484
Настройки программы : cabac=1 / ref=10 / deblock=1:-2:-1 / analyse=0x3:0x113 / me=umh / subme=10 / psy=1 / psy_rd=1.00:0.00 / mixed_ref=1 / me_range=32 / chroma_me=1 / trellis=2 / 8x8dct=1 / cqm=0 / deadzone=21,11 / fast_pskip=1 / chroma_qp_offset=-2 / threads=6 / lookahead_threads=1 / sliced_threads=0 / nr=0 / decimate=0 / interlaced=0 / bluray_compat=0 / constrained_intra=0 / bframes=8 / b_pyramid=2 / b_adapt=2 / b_bias=0 / direct=3 / weightb=1 / open_gop=0 / weightp=2 / keyint=250 / keyint_min=25 / scenecut=40 / intra_refresh=0 / rc=2pass / mbtree=0 / bitrate=1307 / ratetol=1.0 / qcomp=0.60 / qpmin=0 / qpmax=69 / qpstep=4 / cplxblur=20.0 / qblur=0.5 / ip_ratio=1.40 / pb_ratio=1.30 / aq=1:1.00
Default : Да
Forced : Нет

Аудио
Идентификатор : 2
Формат : AC-3
Формат/Информация : Audio Coding 3
Коммерческое название : Dolby Digital
Идентификатор кодека : A_AC3
Продолжительность : 34 м. 40 с.
Вид битрейта : Постоянный
Битрейт : 192 Кбит/сек
Каналы : 2 канала
Channel layout : L R
Частота : 48,0 КГц
Частота кадров : 31,250 кадров/сек (1536 SPF)
Битовая глубина : 16 бит
Метод сжатия : С потерями
Размер потока : 47,6 Мбайт (13%)
Default : Да
Forced : Нет
pb.wtf



Скачать Только не сейчас через торрент http://picplus.ru/img/1902/16/db2ccce3.png Скачать фильм Только не сейчас через торрент бесплантно в хорошем качестве Описание:Целое лето Петя Иванов смотрел вечерами телевизор и на все уговоры матери заняться подготовкой к переэкзаменовке по истории ... 10 10 1
Торрент: Зарегистрирован [2019-02-16 09:45] · скачан: 20 раз
Статус: √ проверено
Размер: 372 MB
Как cкачать? Как скачать Только не сейчас через торрент | qTorrent

% Раздел Тема Автор DL S | L
Кино СССР [ 373 MB ] Только не сейчас [1962 СССР мультфильм короткометражка SATRip от AVP Studio] AVP Studio Скачать
1 | 0
Наши фильмы 2010-2011 [ 1.28 GB ] Только не сейчас [2010 Мело DVDRip Оригинал] кэп Скачать
1 | 0

28-11-2019 20:33  

Отключить всю рекламу на сайте

    Дорогой пользователь! Огромная просьба, поблагодарите релизера, оцените раздачу и оставьте свои комментарий, если Вы скачали Только не сейчас через торрент бесплатно! Внесите свою лепту в развитие PiratBit!
    Комментировать посты могут только пользователи прошедшие не сложную регистрацию
    Показать сообщения:    

    Только не сейчас через торрент
    Скачать бесплатно Только не сейчас
    Только не сейчас скачать торрент
    Только не сейчас смотреть онлайн
    Cкачать фильм Только не сейчас бесплатно
    Только не сейчас скачать торрент в хорошем качестве
    Только не сейчас смотреть онлайн бесплатно в хорошем качестве


    Вы не можете начинать темы
    Вы не можете отвечать на сообщения
    Вы не можете редактировать свои сообщения
    Вы не можете удалять свои сообщения
    Вы не можете голосовать в опросах
    Вы не можете прикреплять файлы к сообщениям
    Вы можете скачивать файлы