Всегда рабочее зеркало без VPN и Proxy просто перед .vidak.icu напиши любое слово или цифру, Пример http://ca3h.vidak.icu

Лицензия

MVO

1 сезон

1

1 сезон

iTunes

1 сезон

13

1 сезон

Deluxe

pack

Рекомендуем

Repack

30

ВАЖНО

RePack

MK11

RePack

jed

RePack

fifa19

RePack

RDR2

RePack

NEED FOR SPEED™ PAYBACK

Кинопоиск HD

6 сезон

 Острые козырьки 6 сезон

Все сериалы

все сериалы на PB.wtf

RePack

FAR CRY 5
  
Magnet ссылка

Тёмная башня / The Dark Tower (Николай Арсель) [2017, ужасы, фантастика, фэнтези, UHD BDRemux 2160p] DUB [Dolby Vision TV] pb.wtf

Тёмная башня через торрент pb.wtf

Размер: 36.98 GB | Добавлен: 3 года 6 мес. назад | Торрент скачан:36 раз
Смотреть онлайн Тёмная башня | Скачать    Ребята, помогите собрать деньги на оплату серверов!!!

16-02-2019 15:25 Тёмная башня Скачать торрент  

Тёмная башня / The Dark Tower«Есть и другие миры, кроме этих»
Год выпуска: 2017
Страна: США
Жанр: ужасы, фантастика, фэнтези, боевик, приключения, вестерн
Продолжительность: 01:34:44
Перевод: Дублированный | Лицензия
Субтитры: Отдельно Русские (форс.)
Режиссер: Николай Арсель
В ролях:

Идрис Эльба (Roland), Мэттью МакКонахи (Walter), Том Тейлор (Jake), Клаудия Ким (Arra), Фрэн Кранц (Pimli), Эбби Ли (Tirana), Джеки Эрл Хейли (Sayre), Кэтрин Уинник (Laurie), Деннис Хейсбёрт (Steven), Майкл Барбиери (Timmy), Хосе Суньига (Dr. Hotchkiss), Николас Хэмилтон (Lucas Hanson)
Описание:
Наш мир - не единственный из существующих. Заклятые враги Роланд Дискейн, последний из ордена стрелков, и Уолтер О’Дим, известный также как Человек в черном, ведут извечную борьбу. На кону - мифическая Темная Башня, последний оплот и надежда вселенной, без которой мир будет повержен в полный хаос и разрушение. Силам добра и зла суждено столкнуться в последней схватке, ведь Роланд Дискейн - единственный, кому под силу остановить Человека в черном, прежде чем тот разрушит Темную Башню.
Рейтинг:

MPAA: PG-13 - Детям до 13 лет просмотр не желателен
Качество: UHD BDRemux 2160p |
Формат: MP4
Видео: HEVC, 55116 Кбит/с, 3840x2160, 23.976 Кадр/с
Аудио #01: 48 kHz, AC3, 5.1, 640 Kbps | Дублированный | RUS |
Данный вид релизов (контейнер MP4) предназначен для встроенного в ТВ (соответственно, с поддержкой DV) плеер.
Т.Е. Можно использовать как USB flash/HDD, так и DLNA / Plex - подобные сервисы/программы. дополнительный-внешний плеер не обязателен.

Внимание!
На моделях LG 2016 возможны сюрпризы "через раз", 2017-2018 должно идти без сюрпризов )
Общее
Полное имя : The.Dark.Tower.2017.UHD.BDRemux.2160p.DV.IVA.RUS.ExKinoRay.mp4
Формат : MPEG-4
Профиль формата : Base Media / Version 2
Идентификатор кодека : mp42 (mp42/iso6/isom/msdh/dby1)
Размер файла : 37,0 Гбайт
Продолжительность : 1 ч. 34 м.
Общий поток : 55,9 Мбит/сек
Дата кодирования : UTC 2019-02-15 21:57:29
Дата пометки : UTC 2019-02-15 21:57:29

Видео #1
Идентификатор : 1
Формат : HEVC
Формат/Информация : High Efficiency Video Coding
Коммерческое название : HDR10
Профиль формата : Main [email protected]@High
Идентификатор кодека : hev1
Идентификатор кодека/Информация : High Efficiency Video Coding
Продолжительность : 1 ч. 34 м.
Битрейт : 55,1 Мбит/сек
Ширина : 3840 пикселей
Высота : 2160 пикселей
Соотношение сторон : 16:9
Режим частоты кадров : Постоянный
Частота кадров : 23,976 (24000/1001) кадра/сек
Цветовое пространство : YUV
Субдискретизация насыщенности : 4:2:0 (Type 2)
Битовая глубина : 10 бит
Бит/(Пиксели*Кадры) : 0.277
Размер потока : 36,5 Гбайт (99%)
Default : Нет
Дата кодирования : UTC 2019-02-15 21:57:29
Дата пометки : UTC 2019-02-15 21:57:29
Цветовой диапазон : Limited
Основные цвета : BT.2020
Характеристики трансфера : PQ
Коэффициенты матрицы : BT.2020 non-constant
MasteringDisplay_ColorPrimaries : Display P3
MasteringDisplay_Luminance : min: 0.0050 cd/m2, max: 4000 cd/m2
MaxCLL : 1542 cd/m2
MaxFALL : 555 cd/m2
Codec configuration box : hvcC

Видео #2
Идентификатор : 2
Формат : HEVC
Формат/Информация : High Efficiency Video Coding
Коммерческое название : HDR10
Профиль формата : Main [email protected]@High
Dolby Vision : 1.0, dvhe.07.06, EL+RPU
Идентификатор кодека : dvhe
Идентификатор кодека/Информация : High Efficiency Video Coding with Dolby Vision
Продолжительность : 1 ч. 34 м.
Битрейт : 124 Кбит/сек
Ширина : 1920 пикселей
Высота : 1080 пикселей
Соотношение сторон : 16:9
Режим частоты кадров : Постоянный
Частота кадров : 23,976 (24000/1001) кадра/сек
Цветовое пространство : YUV
Субдискретизация насыщенности : 4:2:0 (Type 2)
Битовая глубина : 10 бит
Бит/(Пиксели*Кадры) : 0.002
Размер потока : 84,0 Мбайт (0%)
Default : Нет
Дата кодирования : UTC 2019-02-15 21:57:29
Дата пометки : UTC 2019-02-15 21:57:29
Цветовой диапазон : Limited
Основные цвета : BT.2020
Характеристики трансфера : PQ
Коэффициенты матрицы : BT.2020 non-constant
MasteringDisplay_ColorPrimaries : Display P3
MasteringDisplay_Luminance : min: 0.0050 cd/m2, max: 4000 cd/m2
Codec configuration box : hvcC+dvcC

Аудио
Идентификатор : 3
Формат : AC-3
Формат/Информация : Audio Coding 3
Коммерческое название : Dolby Digital
Идентификатор кодека : ac-3
Продолжительность : 1 ч. 34 м.
Вид битрейта : Постоянный
Битрейт : 640 Кбит/сек
Каналы : 6 каналов
Channel layout : L R C LFE Ls Rs
Частота : 48,0 КГц
Частота кадров : 31,250 кадров/сек (1536 SPF)
Битовая глубина : 16 бит
Метод сжатия : С потерями
Размер потока : 434 Мбайт (1%)
Язык : Russian
ServiceKind/String : Complete Main
Default : Нет
Дата кодирования : UTC 2019-02-15 21:57:29
Дата пометки : UTC 2019-02-15 21:57:29
pb.wtf



Скачать Тёмная башня через торрент https://a.radikal.ru/a29/1902/bd/b4f516dd9c2e.png Скачать, смотреть онлайн Тёмная башня бесплантно в хорошем качестве Описание: Наш мир - не единственный из существующих. Заклятые враги Роланд Дискейн, последний из ордена стрелков, и Уолтер О’Дим, известный ... 10 10 3
Торрент: Зарегистрирован [2019-02-16 15:25] · скачан: 36 раз
Статус: T временная
Размер: 36.98 GB
Как cкачать? Как скачать Тёмная башня через торрент | UTorrent

% Раздел Тема Автор DL S | L
Фильмы [HD 720p, 1080p] (Хороший звук DUB, MVO) [ 4.35 GB ] Тёмная башня / The Dark Tower [2017 BDRip 720p] DUB + 2xAVO - KORSAR kisa1980 Скачать
1 | 0
Фильмы [HD 720p, 1080p] (Хороший звук DUB, MVO) [ 4.3 GB ] Тёмная башня / The Dark Tower [2017 BDRip-HEVC 1080p ] DUB [] bober100 Скачать
1 | 0
Фильмы (Blu-ray, BD-Remux, HDDVD) [ 23.07 GB ] Тёмная башня / The Dark Tower [2017 BD Remux 1080p] 2xAVO [Живов Володарский] +2xDUB [Sergesha ] bober100 Скачать
1 | 0
Ultra HD (UHD: 2K, 4K, 8K) — видео сверхвысокой чёткости [ 47.89 GB ] Тёмная башня / The Dark Tower [2017 UHD Blu-ray 2160p] DUB [] bober100 Скачать
1 | 0
Фильмы [HD 720p, 1080p] (Хороший звук DUB, MVO) [ 7.46 GB ] Тёмная башня / The Dark Tower [2017 BDRip 1080p] DUB [] bober100 Скачать
1 | 0
Ultra HD (UHD: 2K, 4K, 8K) — видео сверхвысокой чёткости [ 40.5 GB ] Тёмная башня / The Dark Tower [2017 UHD BDRemux 2160p] - [] sheker187 Скачать
1 | 0
Фильмы 2017 [DVDrip, WEB-DLRip, HDrip] (DUB, MVO) [ 2.23 GB ] Тёмная башня / The Dark Tower [2017 BDRip-AVC] sokol_ok Скачать
2 | 0


Последний раз редактировалось: sheker187 (2019-02-17 05:32), всего редактировалось 1 раз

28-11-2019 20:33  

Отключить вcю реклaмy на сайте

    Дорогой пользователь! Огромная просьба, поблагодарите релизера, оцените раздачу и оставьте свои комментарий, если Вы скачали Тёмная башня через торрент бесплатно!
    Комментировать посты могут только пользователи прошедшие не сложную регистрацию
    Показать сообщения:    

    Тёмная башня через торрент
    Скачать бесплатно Тёмная башня
    Тёмная башня скачать торрент
    Тёмная башня смотреть онлайн
    Cкачать фильм Тёмная башня бесплатно
    Тёмная башня скачать торрент в хорошем качестве
    Тёмная башня смотреть онлайн бесплатно в хорошем качестве


    Вы не можете начинать темы
    Вы не можете отвечать на сообщения
    Вы не можете редактировать свои сообщения
    Вы не можете удалять свои сообщения
    Вы не можете голосовать в опросах
    Вы не можете прикреплять файлы к сообщениям
    Вы можете скачивать файлы