Всегда рабочее зеркало без VPN и Proxy просто перед .vidak.icu напиши любое слово или цифру, Пример http://wv55.vidak.icu

MVO

2 сезон

2 сезон

1

1 сезон

iTunes

2 сезон

13

1 сезон

Распродажа

pack

Рекомендуем

Пиратка

30

ВАЖНО

RePack

MK11

RePack

jed

RePack

fifa19

RePack

RDR2

RePack

NEED FOR SPEED™ PAYBACK

Кинопоиск HD

6 сезон

 Острые козырьки 6 сезон

Все сериалы

все сериалы на PB.wtf

RePack

FAR CRY 5

Anonymous, нам критически не хватает 5601 руб. на оплату серверов и переферии за Апрель, помоги нам пожалуйста, вся надежда только на тебя. В благодарность мы отключим тебе всю рекламу на сайте!

×
  
Magnet ссылка

Планета обезьян: Война / War for the Planet of the Apes (Мэтт Ривз) [2017, фантастика, боевик, триллер, UHD BDRemux 2160p] DUB + 3xAVO pb.wtf

Планета обезьян: Война через торрент pb.wtf

Размер: 60.13 GB | Добавлен: 3 года 3 мес. назад | Торрент скачан:90 раз
Смотреть онлайн Планета обезьян: Война | Скачать    Ребята, помогите собрать деньги на оплату серверов!!!

16-02-2019 15:33 Планета обезьян: Война Скачать торрент  

Планета обезьян: Война / War for the Planet of the Apes«Кульминация великого противостояния»
Год выпуска: 2017
Страна: Канада, Новая Зеландия, США
Жанр: фантастика, боевик, триллер, драма, приключения
Продолжительность: 02:20:10
Перевод: Дублированный, авторский
Субтитры: Русские, английские
Режиссер: Мэтт Ривз
В ролях:

Энди Серкис (Caesar), Вуди Харрельсон (The Colonel), Стив Зан (Bad Ape), Карин Коновал (Maurice), Амайя Миллер (Nova), Терри Нотари (Rocket), Тай Олссон (Red Donkey), Майкл Адамуэйт (Luca), Тоби Кеббелл (Koba), Гэбриел Чаварриа (Preacher), Джуди Грир (Cornelia), Сара Каннинг (Lake)
Описание:
Армию генетически модифицированных обезьян ожидает новый вызов: они вынуждены вступить в смертельную схватку с армией людей под руководством безжалостного полковника. После невообразимых потерь среди своих воинов вождь обезьян Цезарь начинает личную борьбу с темными инстинктами и собирается отомстить за весь свой вид. В конце концов он и полковник должны будут сойтись в эпической битве, которая решит, кто теперь будет править на Земле - люди или обезьяны.
Рейтинг:

MPAA: PG-13 - Детям до 13 лет просмотр не желателен
Качество: UHD BDRemux 2160p
Формат: MKV
Видео: MPEG-H HEVC Video / 35429 kbps / 3840x2160 / 23,976 fps / 16:9 / Main 10 @ Level 5.1 @ High / 4:2:0 / 10 bits / HDR10 / Limited Range / BT.2020
Аудио 1: Russian DTS / 5.1 / 48 kHz / 768 kbps / 24-bit |Dub, Blu-Ray|
Аудио 2: Russian DTS-HD Master Audio / 7.1 / 48 kHz / 4780 kbps / 24-bit (DTS Core: 5.1 / 48 kHz / 1509 kbps / 24-bit) |Dub, Custom|
Аудио 3: Russian DTS-HD Master Audio / 7.1 / 48 kHz / 4802 kbps / 24-bit (DTS Core: 5.1 / 48 kHz / 1509 kbps / 24-bit) |А. Гаврилов|
Аудио 4: Russian DTS-HD Master Audio / 7.1 / 48 kHz / 4813 kbps / 24-bit (DTS Core: 5.1 / 48 kHz / 1509 kbps / 24-bit) |Ю. Живов|
Аудио 5: Russian DTS-HD Master Audio / 7.1 / 48 kHz / 4828 kbps / 24-bit (DTS Core: 5.1 / 48 kHz / 1509 kbps / 24-bit) |Д. Есарев|
Аудио 6: English Dolby Atmos/TrueHD Audio / 7.1-Atmos / 48 kHz / 5702 kbps / 24-bit |original|
Аудио 7: English AC3 Core: 5.1 / 48 kHz / 640 kbps |original|
Аудио 8: English AC3 / 2.0 / 48 kHz / 224 kbps |Commentary by director Matt Reeves|
Навигация по главам: есть

Общее
Уникальный идентификатор : 51868973753210514883367780906646928354 (0x270599D967CD96AFB822A33E4D087BE2)
Полное имя : H:\UHD\Планета обезьян Война.2017.UHD.BluRay.Remux.2160p.mkv
Формат : Matroska
Версия формата : Version 4
Размер файла : 60,1 Гбайт
Продолжительность : 2 ч. 20 м.
Режим общего битрейта : Переменный
Общий поток : 61,4 Мбит/сек
Дата кодирования : UTC 2019-02-15 20:33:21
Программа кодирования : mkvmerge v31.0.0 ('Dolores In A Shoestand') 64-bit
Библиотека кодирования : libebml v1.3.6 + libmatroska v1.4.9
Attachments : poster.jpg

Видео
Идентификатор : 1
Формат : HEVC
Формат/Информация : High Efficiency Video Coding
Коммерческое название : HDR10
Профиль формата : Main 10@L5.1@High
Идентификатор кодека : V_MPEGH/ISO/HEVC
Продолжительность : 2 ч. 20 м.
Битрейт : 35,4 Мбит/сек
Ширина : 3840 пикселей
Высота : 2160 пикселей
Соотношение сторон : 16:9
Режим частоты кадров : Постоянный
Частота кадров : 23,976 (24000/1001) кадра/сек
Цветовое пространство : YUV
Субдискретизация насыщенности : 4:2:0 (Type 2)
Битовая глубина : 10 бит
Бит/(Пиксели*Кадры) : 0.178
Размер потока : 34,7 Гбайт (58%)
Библиотека кодирования : ATEME Titan File 3.8.3 (4.8.3.0)
Default : Да
Forced : Нет
Цветовой диапазон : Limited
Основные цвета : BT.2020
Характеристики трансфера : PQ
Коэффициенты матрицы : BT.2020 non-constant
MasteringDisplay_ColorPrimaries : Display P3
MasteringDisplay_Luminance : min: 0.0050 cd/m2, max: 1000 cd/m2

Аудио #1
Идентификатор : 2
Формат : DTS
Формат/Информация : Digital Theater Systems
Идентификатор кодека : A_DTS
Продолжительность : 2 ч. 20 м.
Вид битрейта : Постоянный
Битрейт : 768 Кбит/сек
Каналы : 6 каналов
Channel layout : C L R Ls Rs LFE
Частота : 48,0 КГц
Частота кадров : 93,750 кадра/сек (512 SPF)
Битовая глубина : 24 бит
Метод сжатия : С потерями
Размер потока : 770 Мбайт (1%)
Заголовок : Dub, Blu-Ray
Язык : Russian
Default : Да
Forced : Нет

Аудио #2
Идентификатор : 3
Формат : DTS XLL
Формат/Информация : Digital Theater Systems
Коммерческое название : DTS-HD Master Audio
Идентификатор кодека : A_DTS
Продолжительность : 2 ч. 20 м.
Вид битрейта : Переменный
Битрейт : 4780 Кбит/сек
Каналы : 8 каналов
Channel layout : C L R LFE Lb Rb Lss Rss
Частота : 48,0 КГц
Частота кадров : 93,750 кадра/сек (512 SPF)
Битовая глубина : 24 бит
Метод сжатия : Без потерь
Размер потока : 4,68 Гбайт (8%)
Заголовок : Dub, Custom
Язык : Russian
Default : Нет
Forced : Нет

Аудио #3
Идентификатор : 4
Формат : DTS XLL
Формат/Информация : Digital Theater Systems
Коммерческое название : DTS-HD Master Audio
Идентификатор кодека : A_DTS
Продолжительность : 2 ч. 20 м.
Вид битрейта : Переменный
Битрейт : 4802 Кбит/сек
Каналы : 8 каналов
Channel layout : C L R LFE Lb Rb Lss Rss
Частота : 48,0 КГц
Частота кадров : 93,750 кадра/сек (512 SPF)
Битовая глубина : 24 бит
Метод сжатия : Без потерь
Размер потока : 4,70 Гбайт (8%)
Заголовок : А. Гаврилов
Язык : Russian
Default : Нет
Forced : Нет

Аудио #4
Идентификатор : 5
Формат : DTS XLL
Формат/Информация : Digital Theater Systems
Коммерческое название : DTS-HD Master Audio
Идентификатор кодека : A_DTS
Продолжительность : 2 ч. 20 м.
Вид битрейта : Переменный
Битрейт : 4813 Кбит/сек
Каналы : 8 каналов
Channel layout : C L R LFE Lb Rb Lss Rss
Частота : 48,0 КГц
Частота кадров : 93,750 кадра/сек (512 SPF)
Битовая глубина : 24 бит
Метод сжатия : Без потерь
Размер потока : 4,71 Гбайт (8%)
Заголовок : Ю. Живов
Язык : Russian
Default : Нет
Forced : Нет

Аудио #5
Идентификатор : 6
Формат : DTS XLL
Формат/Информация : Digital Theater Systems
Коммерческое название : DTS-HD Master Audio
Идентификатор кодека : A_DTS
Продолжительность : 2 ч. 20 м.
Вид битрейта : Переменный
Битрейт : 4828 Кбит/сек
Каналы : 8 каналов
Channel layout : C L R LFE Lb Rb Lss Rss
Частота : 48,0 КГц
Частота кадров : 93,750 кадра/сек (512 SPF)
Битовая глубина : 24 бит
Метод сжатия : Без потерь
Размер потока : 4,73 Гбайт (8%)
Заголовок : Д. Есарев
Язык : Russian
Default : Нет
Forced : Нет

Аудио #6
Идентификатор : 7
Формат : MLP FBA 16-ch
Формат/Информация : Meridian Lossless Packing FBA with 16-channel presentation
Коммерческое название : Dolby TrueHD with Dolby Atmos
Идентификатор кодека : A_TRUEHD
Продолжительность : 2 ч. 20 м.
Вид битрейта : Переменный
Битрейт : 5062 Кбит/сек
Максимальный битрейт : 8988 Кбит/сек
Каналы : 8 каналов
Channel layout : L R C LFE Ls Rs Lb Rb
Частота : 48,0 КГц
Частота кадров : 1200,000 кадров/сек (40 SPF)
Метод сжатия : Без потерь
Размер потока : 4,96 Гбайт (8%)
Язык : English
Default : Нет
Forced : Нет
Number of dynamic objects : 13
Bed channel count : 1 канал
Bed channel configuration : LFE

Аудио #7
Идентификатор : 8
Формат : AC-3
Формат/Информация : Audio Coding 3
Коммерческое название : Dolby Digital
Идентификатор кодека : A_AC3
Продолжительность : 2 ч. 20 м.
Вид битрейта : Постоянный
Битрейт : 640 Кбит/сек
Каналы : 6 каналов
Channel layout : L R C LFE Ls Rs
Частота : 48,0 КГц
Частота кадров : 31,250 кадров/сек (1536 SPF)
Битовая глубина : 16 бит
Метод сжатия : С потерями
Размер потока : 642 Мбайт (1%)
Язык : English
ServiceKind/String : Complete Main
Default : Нет
Forced : Нет

Аудио #8
Идентификатор : 9
Формат : AC-3
Формат/Информация : Audio Coding 3
Коммерческое название : Dolby Digital
Идентификатор кодека : A_AC3
Продолжительность : 2 ч. 20 м.
Вид битрейта : Постоянный
Битрейт : 224 Кбит/сек
Каналы : 2 канала
Channel layout : L R
Частота : 48,0 КГц
Частота кадров : 31,250 кадров/сек (1536 SPF)
Битовая глубина : 16 бит
Метод сжатия : С потерями
Размер потока : 225 Мбайт (0%)
Заголовок : Commentary by director Matt Reeves
Язык : English
ServiceKind/String : Complete Main
Default : Нет
Forced : Нет

Текст #1
Идентификатор : 10
Формат : UTF-8
Идентификатор кодека : S_TEXT/UTF8
Идентификатор кодека/Информация : UTF-8 Plain Text
Продолжительность : 2 ч. 18 м.
Битрейт : 8 бит/сек
ElementCount : 220
Размер потока : 8,96 Кбайт (0%)
Заголовок : forced
Язык : Russian
Default : Да
Forced : Нет

Текст #2
Идентификатор : 11
Формат : UTF-8
Идентификатор кодека : S_TEXT/UTF8
Идентификатор кодека/Информация : UTF-8 Plain Text
Продолжительность : 2 ч. 18 м.
Битрейт : 28 бит/сек
ElementCount : 797
Размер потока : 28,5 Кбайт (0%)
Заголовок : full
Язык : Russian
Default : Нет
Forced : Нет

Текст #3
Идентификатор : 12
Формат : UTF-8
Идентификатор кодека : S_TEXT/UTF8
Идентификатор кодека/Информация : UTF-8 Plain Text
Продолжительность : 2 ч. 19 м.
Битрейт : 143 бит/сек
ElementCount : 1869
Размер потока : 147 Кбайт (0%)
Заголовок : Commentary by director Matt Reeves
Язык : Russian
Default : Нет
Forced : Нет

Текст #4
Идентификатор : 13
Формат : UTF-8
Идентификатор кодека : S_TEXT/UTF8
Идентификатор кодека/Информация : UTF-8 Plain Text
Продолжительность : 1 ч. 42 м.
Битрейт : 5 бит/сек
ElementCount : 192
Размер потока : 4,22 Кбайт (0%)
Заголовок : forced
Язык : English
Default : Нет
Forced : Нет

Текст #5
Идентификатор : 14
Формат : UTF-8
Идентификатор кодека : S_TEXT/UTF8
Идентификатор кодека/Информация : UTF-8 Plain Text
Продолжительность : 2 ч. 8 м.
Битрейт : 16 бит/сек
ElementCount : 750
Размер потока : 15,5 Кбайт (0%)
Заголовок : full
Язык : English
Default : Нет
Forced : Нет

Текст #6
Идентификатор : 15
Формат : UTF-8
Идентификатор кодека : S_TEXT/UTF8
Идентификатор кодека/Информация : UTF-8 Plain Text
Продолжительность : 2 ч. 12 м.
Битрейт : 102 бит/сек
ElementCount : 1957
Размер потока : 100,0 Кбайт (0%)
Заголовок : Commentary by director Matt Reeves
Язык : English
Default : Нет
Forced : Нет

Меню
00:00:00.000 : :Chapter 01
00:05:05.888 : :Chapter 02
00:09:06.712 : :Chapter 03
00:12:14.108 : :Chapter 04
00:18:21.016 : :Chapter 05
00:25:04.503 : :Chapter 06
00:30:17.398 : :Chapter 07
00:34:13.092 : :Chapter 08
00:37:46.347 : :Chapter 09
00:42:54.446 : :Chapter 10
00:49:31.802 : :Chapter 11
00:54:14.626 : :Chapter 12
00:58:49.817 : :Chapter 13
01:05:24.128 : :Chapter 14
01:10:18.380 : :Chapter 15
01:14:53.822 : :Chapter 16
01:18:59.192 : :Chapter 17
01:25:35.672 : :Chapter 18
01:29:37.372 : :Chapter 19
01:34:22.823 : :Chapter 20
01:39:27.711 : :Chapter 21
01:43:48.222 : :Chapter 22
01:48:45.393 : :Chapter 23
01:55:20.580 : :Chapter 24
01:58:04.702 : :Chapter 25
02:02:33.929 : :Chapter 26
02:05:54.797 : :Chapter 27
02:12:51.213 : :Chapter 28
pb.wtf



Скачать Планета обезьян: Война через торрент https://b.radikal.ru/b06/1902/f5/69ed02e6b67f.png Скачать, смотреть онлайн Планета обезьян: Война бесплантно в хорошем качестве Описание: Армию генетически модифицированных обезьян ожидает новый вызов: они вынуждены вступить в смертельную схватку с армией людей под ... 10 10 6
Info! Золотая раздача, скачанное не засчитывается.
Торрент: Зарегистрирован [2019-02-16 15:33] · скачан: 90 раз
Статус: √ проверено
Размер: 60.13 GB
Как cкачать? Как скачать Планета обезьян: Война через торрент | UTorrent

% Раздел Тема Автор DL S | L
Фильмы (Blu-ray, BD-Remux, HDDVD) [ 45.87 GB ] Планета обезьян: Война / War for the Planet of the Apes [2017 BDRemux 1080p] DUB + 3xAVO sheker187 Скачать
1 | 0

28-11-2019 20:33  

Отключить всю рекламу на сайте

    Дорогой пользователь! Огромная просьба, поблагодарите релизера, оцените раздачу и оставьте свои комментарий, если Вы скачали Планета обезьян: Война через торрент бесплатно!
    Комментировать посты могут только пользователи прошедшие не сложную регистрацию
    Показать сообщения:    

    Планета обезьян: Война через торрент
    Скачать бесплатно Планета обезьян: Война
    Планета обезьян: Война скачать торрент
    Планета обезьян: Война смотреть онлайн
    Cкачать фильм Планета обезьян: Война бесплатно
    Планета обезьян: Война скачать торрент в хорошем качестве
    Планета обезьян: Война смотреть онлайн бесплатно в хорошем качестве


    Вы не можете начинать темы
    Вы не можете отвечать на сообщения
    Вы не можете редактировать свои сообщения
    Вы не можете удалять свои сообщения
    Вы не можете голосовать в опросах
    Вы не можете прикреплять файлы к сообщениям
    Вы можете скачивать файлы