Ссылка на приватное зеркало нашего сайта всего за 1$. Внимание количество ограничено!!!

2 сезон

iTunes

1 сезон

1

2 сезон

2 сезон

iTunes

1 сезон

RePack

30

Новинка

ВАЖНО

ИГРА 18+

pack

RePack

MK11
pack

Забери бонус

RePack

jed

!!Акция!!

Alien_Rage

RePack

fifa19

RePack

Assassins Creed: Odyssey

RePack

NEED FOR SPEED™ PAYBACK

4 сезон

9 сезон

Бесстыжие 9 сезон

Все сериалы

все сериалы на PB.wtf

RePack

FAR CRY 5
  

Чудотворцы / Miracle Workers / Сезон: 1 / Серии: 1-7 из 7 (Райан Кейс, Морис Мэрэбл, Йорма Такконе) [2019, Комедия, HDTVRip] MVO [Jaskier] pb.wtf

Чудотворцы через торрент pb.wtf

Размер: 1.8 GB | Добавлен: 1 год 7 мес. назад | Торрент скачан:14 раз
Скачать  

16-02-2019 18:21 Чудотворцы Скачать торрент  

Чудотворцы / Miracle Workers

Год выпуска: 2019
Страна:США
Жанр: Комедия
Продолжительность: ~ 00:25:00
Перевод: Профессиональный (многоголосый закадровый) | Jaskier
Субтитры: отсутствуют

Режиссёр: Райан Кейс, Морис Мэрэбл, Йорма Такконе

В ролях:

Стив Бушеми, Дэниэл Рэдклифф, Джеральдин Висванатхан, Каран Сони, Саша Компере, Джон Басс, Париза Джонстон, Леандер Сулейман

Описание:

Небесная канцелярия Бога — масштабный офис с множеством отделов и сотрудников, работающих в атмосфере цейтнота и многозадачности. Есть даже HR или же напоминающий службу технической поддержки отдел обработки молитв. Именно его служащие, ангелы Элиза и Крэйг, берутся за спасение Земли, когда приунывший Господь вдруг решает ее погубить. Теперь у ангелов есть две недели, чтобы соединить несоединимое — двух одиноких людей в пару — и доказать, что человечество вовсе не безнадежно и достойно существования.



Качество: HDTVRip
Формат: AVI

Видео: XviD, ~ 1500 kbps, 720x400 (16:9), 23.973 fps
Аудио 1: MP3, 48,0 КГц, 2 ch, 128 kbps - Rus
Аудио 2: MP3, 48,0 КГц, 2 ch, 128 kbps - Eng


Реклама: Присутствует звуковая (два раза в начале и конце по 10 сек.)
Переведено и озвучено: студией Jaskier
Общее
Полное имя                               : G:\Jaskier\Miracle.Workers Season 1 (HDTVRip l 400p l Jaskier)\Miracle.Workers.S03E01.HDTVRip.Jaskier.avi
Формат                                   : AVI
Формат/Информация                        : Audio Video Interleave
Размер файла                             : 275 Мбайт
Продолжительность                        : 21 м. 42 с.
Общий поток                              : 1770 Кбит/сек
Программа кодирования                    : VirtualDubMod 1.5.10.2 (build 2540/release)
Библиотека кодирования                   : VirtualDubMod build 2540/release

Видео
Идентификатор                            : 0
Формат                                   : MPEG-4 Visual
Профиль формата                          : Advanced Simple@L5
Настройки формата                        : BVOP2
Параметр BVOP формата                    : 2
Параметр QPel формата                    : Нет
Параметр GMC формата                     : Без точки перехода
Параметр матрицы формата                 : Default (MPEG)
Идентификатор кодека                     : XVID
Идентификатор кодека/Подсказка           : XviD
Продолжительность                        : 21 м. 42 с.
Битрейт                                  : 1500 Кбит/сек
Ширина                                   : 720 пикселей
Высота                                   : 400 пикселей
Соотношение сторон                       : 16:9
Частота кадров                           : 23,976 (24000/1001) кадра/сек
Цветовое пространство                    : YUV
Субдискретизация насыщенности            : 4:2:0
Битовая глубина                          : 8 бит
Тип развёртки                            : Прогрессивная
Метод сжатия                             : С потерями
Бит/(Пиксели*Кадры)                      : 0.217
Размер потока                            : 233 Мбайт (85%)
Библиотека кодирования                   : XviD 1.2.1 (UTC 2008-12-04)

Аудио #1
Идентификатор                            : 1
Формат                                   : MPEG Audio
Версия формата                           : Version 1
Профиль формата                          : Layer 3
Настройки формата                        : Joint stereo / MS Stereo
Идентификатор кодека                     : 55
Идентификатор кодека/Подсказка           : MP3
Продолжительность                        : 21 м. 42 с.
Вид битрейта                             : Постоянный
Битрейт                                  : 128 Кбит/сек
Каналы                                   : 2 канала
Частота                                  : 48,0 КГц
Частота кадров                           : 41,667 кадра/сек (1152 SPF)
Метод сжатия                             : С потерями
Размер потока                            : 19,9 Мбайт (7%)
Выравнивание                             : Соединение по промежуткам
Продолжительность промежутка             : 42  мс. (1,00 видеокадр)
Время предзагрузки промежутка            : 504  мс.
Библиотека кодирования                   : LAME3.100
Настройки программы                      : -m j -V 4 -q 3 -lowpass 17 -b 128

Аудио #2
Идентификатор                            : 2
Формат                                   : MPEG Audio
Версия формата                           : Version 1
Профиль формата                          : Layer 3
Настройки формата                        : Joint stereo / MS Stereo
Идентификатор кодека                     : 55
Идентификатор кодека/Подсказка           : MP3
Продолжительность                        : 21 м. 42 с.
Вид битрейта                             : Постоянный
Битрейт                                  : 128 Кбит/сек
Каналы                                   : 2 канала
Частота                                  : 48,0 КГц
Частота кадров                           : 41,667 кадра/сек (1152 SPF)
Метод сжатия                             : С потерями
Размер потока                            : 19,9 Мбайт (7%)
Выравнивание                             : Соединение по промежуткам
Продолжительность промежутка             : 42  мс. (1,00 видеокадр)
Время предзагрузки промежутка            : 504  мс.
Библиотека кодирования                   : LAME3.100
Настройки программы                      : -m j -V 4 -q 3 -lowpass 17 -b 128
скриншот  скриншот  скриншот  
Когда раздача ведётся путём добавления новых серий, при каждом добавлении создётся новый торрент. Чтобы начать докачку новой серии, пользователям необходимо сделать следующее:
(1) остановить скачивание,
(2) удалить старый торрент у себя из клиента (старые серии удалять не надо),
(3) скачать новый торрент и запустить его у себя в клиенте вместо старого, при этом указать клиенту путь в старую папку, куда и должно происходить скачивание новых серий.
Ваш клиент при этом должен произвести хеширование (проверку) старой папки (если не производит сам - помогите ему сделать это), и будет докачивать только те серии, которых у вас ещё нет. Старые серии при этом не удаляются, а продолжают раздаваться!
Eсли вы уже удалили старые серии, то предотвратить повторную закачку старых серий можно, отжав галочку в соответсвующих местах при запуске нового торрента. По возможности, желательно не удалять старые серии как можно дольше, чтобы релизёр не столько продолжал раздавать старые серии, а смог сконцентрироваться на новых.
pb.wtf



Скачать Чудотворцы через торрент https://i109.fastpic.ru/big/2019/0216/e0/2880e6214c59beca01e265ddfd7101e0.png Скачать фильм Чудотворцы через торрент бесплантно в хорошем качестве Описание:Небесная канцелярия Бога — масштабный офис с множеством отделов и сотрудников, работающих в атмосфере цейтнота и многозадачности. ... 10 10 3
Торрент: Зарегистрирован [2019-04-17 18:22] · скачан: 14 раз
Статус: √ проверено
Размер: 1.8 GB
Как cкачать? Как скачать Чудотворцы через торрент | qTorrent

% Раздел Тема Автор DL S | L
Зарубежные сериалы [ 1.81 GB ] Чудотворцы / Miracle Workers / Сезон: 1 / Серии: 1-7 из 7 [2019 WEBRip] VO [Кураж-Бамбей] bober100 Скачать
1 | 0
Зарубежные сериалы [ 453 MB ] Чудотворцы / Miracle Workers / Сезон: 2 / Серии 1- из 7 [2020 HDTVRip 720p] [MVO] killermax2013 Скачать
1 | 0
Зарубежные сериалы [ 1.55 GB ] Чудотворцы / Miracle Workers / Сезон: 1 / Серии 1-7 из 7 [2019 WEBRip] [MVO] killermax2013 Скачать
1 | 0
Зарубежные сериалы [ 7.46 GB ] Чудотворцы / Miracle Workers / Сезон: 1 / Серии 1-7 из 7 [2019 WEBRip 1080p] [MVO] killermax2013 Скачать
2 | 0
Зарубежные сериалы [ 5.96 GB ] Чудотворцы / Miracle Workers / Сезон: 1 / Серии: 1-7 из 7 [2019 WEBRip 720p] MVO [Good People] bober100 Скачать
1 | 0
Зарубежные сериалы [ 1.71 GB ] Чудотворцы / Miracle Workers / Сезон: 1 / Серии: 1-7 из 7 [2019 WEB-DLRip] MVO [Good People] bober100 Скачать
1 | 0
Зарубежные сериалы [ 10.37 GB ] Чудотворцы / Miracle Workers / Сезон: 1 / Серии: 1-7 из 7 [2019 WEBRip 1080p] MVO [TVShows] bober100 Скачать
1 | 0

28-11-2019 20:33  

Отключить всю рекламу на сайте

    Дорогой пользователь! Огромная просьба, поблагодарите релизера, оцените раздачу и оставьте свои комментарий, если Вы скачали Чудотворцы через торрент бесплатно! Внесите свою лепту в развитие PiratBit!
    Комментировать посты могут только пользователи прошедшие не сложную регистрацию
    Показать сообщения:    

    Чудотворцы через торрент
    Скачать бесплатно Чудотворцы
    Чудотворцы скачать торрент
    Чудотворцы смотреть онлайн
    Cкачать фильм Чудотворцы бесплатно
    Чудотворцы скачать торрент в хорошем качестве
    Чудотворцы смотреть онлайн бесплатно в хорошем качестве


    Вы не можете начинать темы
    Вы не можете отвечать на сообщения
    Вы не можете редактировать свои сообщения
    Вы не можете удалять свои сообщения
    Вы не можете голосовать в опросах
    Вы не можете прикреплять файлы к сообщениям
    Вы можете скачивать файлы