Ссылка на приватное зеркало нашего сайта всего за 1$. Внимание количество ограничено!!!

2 сезон

iTunes

1 сезон

1

2 сезон

2 сезон

iTunes

1 сезон

RePack

30

Новинка

ВАЖНО

ИГРА 18+

pack

RePack

MK11
pack

Забери бонус

RePack

jed

!!Акция!!

Alien_Rage

RePack

fifa19

RePack

Assassins Creed: Odyssey

RePack

NEED FOR SPEED™ PAYBACK

4 сезон

9 сезон

Бесстыжие 9 сезон

Все сериалы

все сериалы на PB.wtf

RePack

FAR CRY 5
  

Чудотворцы / Miracle Workers / Сезон: 1 / Серии: 1-7 из 7 (Райан Кейс, Морис Мэрэбл, Йорма Такконе) [2019, Комедия, HDTV 720p] MVO [Jaskier] pb.wtf

Чудотворцы через торрент pb.wtf

Размер: 3.69 GB | Добавлен: 1 год 7 мес. назад | Торрент скачан:56 раз
Скачать  

16-02-2019 18:23 Чудотворцы Скачать торрент  

Чудотворцы / Miracle Workers

Год выпуска: 2019
Страна:США
Жанр: Комедия
Продолжительность: ~ 00:25:00
Перевод: Профессиональный (многоголосый закадровый) | Jaskier
Субтитры: отсутствуют

Режиссёр: Райан Кейс, Морис Мэрэбл, Йорма Такконе

В ролях:

Стив Бушеми, Дэниэл Рэдклифф, Джеральдин Висванатхан, Каран Сони, Саша Компере, Джон Басс, Париза Джонстон, Леандер Сулейман

Описание:

Небесная канцелярия Бога — масштабный офис с множеством отделов и сотрудников, работающих в атмосфере цейтнота и многозадачности. Есть даже HR или же напоминающий службу технической поддержки отдел обработки молитв. Именно его служащие, ангелы Элиза и Крэйг, берутся за спасение Земли, когда приунывший Господь вдруг решает ее погубить. Теперь у ангелов есть две недели, чтобы соединить несоединимое — двух одиноких людей в пару — и доказать, что человечество вовсе не безнадежно и достойно существования.



Качество: HDTV 720p
Формат: MKV

Видео: 1280x720 (16:9) | X264 | ~2489 kbps | 23.976 fps
Аудио 1: AC3, 48,0 КГц, 6 ch, 384 kbps - [RUS]
Аудио 2: AC3, 48,0 КГц, 6 ch, 384 kbps - [ENG]


Реклама: Присутствует звуковая (два раза в начале и конце по 10 сек.)
Переведено и озвучено: студией Jaskier
Общее
Уникальный идентификатор                 : 35827555630395384958828493019238861559 (0x1AF422DF7694214F77992EFE61D78AF7)
Полное имя                               : G:\Jaskier\Miracle.Workers Season 1 (HDTV l 720p l Jaskier)\Miracle.Workers .S01E01.HDTV.720p.Jaskier.mkv
Формат                                   : Matroska
Версия формата                           : Version 4 / Version 2
Размер файла                             : 506 Мбайт
Продолжительность                        : 21 м. 42 с.
Общий поток                              : 3259 Кбит/сек
Дата кодирования                         : UTC 2019-02-16 15:08:10
Программа кодирования                    : mkvmerge v28.0.0 ('Voice In My Head') 64-bit
Библиотека кодирования                   : libebml v1.3.6 + libmatroska v1.4.9

Видео
Идентификатор                            : 1
Формат                                   : AVC
Формат/Информация                        : Advanced Video Codec
Профиль формата                          : High@L4.1
Настройки формата                        : CABAC / 5 Ref Frames
Параметр CABAC формата                   : Да
Параметр RefFrames формата               : 5 кадров
Идентификатор кодека                     : V_MPEG4/ISO/AVC
Продолжительность                        : 21 м. 42 с.
Битрейт                                  : 2489 Кбит/сек
Ширина                                   : 1280 пикселей
Высота                                   : 720 пикселей
Соотношение сторон                       : 16:9
Режим частоты кадров                     : Постоянный
Частота кадров                           : 23,976 (24000/1001) кадра/сек
Цветовое пространство                    : YUV
Субдискретизация насыщенности            : 4:2:0
Битовая глубина                          : 8 бит
Тип развёртки                            : Прогрессивная
Бит/(Пиксели*Кадры)                      : 0.113
Размер потока                            : 387 Мбайт (76%)
Библиотека кодирования                   : x264 core 157 r2935 545de2f
Настройки программы                      : cabac=1 / ref=5 / deblock=1:-3:-3 / analyse=0x3:0x113 / me=umh / subme=8 / psy=1 / psy_rd=1.00:0.15 / mixed_ref=1 / me_range=16 / chroma_me=1 / trellis=2 / 8x8dct=1 / cqm=0 / deadzone=21,11 / fast_pskip=1 / chroma_qp_offset=-3 / threads=6 / lookahead_threads=1 / sliced_threads=0 / nr=0 / decimate=1 / interlaced=0 / bluray_compat=0 / constrained_intra=0 / bframes=3 / b_pyramid=2 / b_adapt=2 / b_bias=0 / direct=3 / weightb=1 / open_gop=0 / weightp=2 / keyint=240 / keyint_min=23 / scenecut=40 / intra_refresh=0 / rc_lookahead=50 / rc=crf / mbtree=1 / crf=18.0 / qcomp=0.60 / qpmin=0 / qpmax=69 / qpstep=4 / vbv_maxrate=62500 / vbv_bufsize=78125 / crf_max=0.0 / nal_hrd=none / filler=0 / ip_ratio=1.40 / aq=1:1.00
Язык                                     : English
Default                                  : Да
Forced                                   : Нет
Цветовой диапазон                        : Limited
Коэффициенты матрицы                     : BT.709

Аудио #1
Идентификатор                            : 2
Формат                                   : AC-3
Формат/Информация                        : Audio Coding 3
Идентификатор кодека                     : A_AC3
Продолжительность                        : 21 м. 42 с.
Вид битрейта                             : Постоянный
Битрейт                                  : 384 Кбит/сек
Каналы                                   : 6 каналов
Расположение каналов                     : Front: L C R, Side: L R, LFE
Частота                                  : 48,0 КГц
Частота кадров                           : 31,250 кадров/сек (1536 SPF)
Битовая глубина                          : 16 бит
Метод сжатия                             : С потерями
Размер потока                            : 59,6 Мбайт (12%)
Язык                                     : Russian
ServiceKind/String                       : Complete Main
Default                                  : Да
Forced                                   : Нет

Аудио #2
Идентификатор                            : 3
Формат                                   : AC-3
Формат/Информация                        : Audio Coding 3
Идентификатор кодека                     : A_AC3
Продолжительность                        : 21 м. 42 с.
Вид битрейта                             : Постоянный
Битрейт                                  : 384 Кбит/сек
Каналы                                   : 6 каналов
Расположение каналов                     : Front: L C R, Side: L R, LFE
Частота                                  : 48,0 КГц
Частота кадров                           : 31,250 кадров/сек (1536 SPF)
Битовая глубина                          : 16 бит
Метод сжатия                             : С потерями
Размер потока                            : 59,6 Мбайт (12%)
Язык                                     : English
ServiceKind/String                       : Complete Main
Default                                  : Нет
Forced                                   : Нет
скриншот  скриншот  скриншот  
Когда раздача ведётся путём добавления новых серий, при каждом добавлении создётся новый торрент. Чтобы начать докачку новой серии, пользователям необходимо сделать следующее:
(1) остановить скачивание,
(2) удалить старый торрент у себя из клиента (старые серии удалять не надо),
(3) скачать новый торрент и запустить его у себя в клиенте вместо старого, при этом указать клиенту путь в старую папку, куда и должно происходить скачивание новых серий.
Ваш клиент при этом должен произвести хеширование (проверку) старой папки (если не производит сам - помогите ему сделать это), и будет докачивать только те серии, которых у вас ещё нет. Старые серии при этом не удаляются, а продолжают раздаваться!
Eсли вы уже удалили старые серии, то предотвратить повторную закачку старых серий можно, отжав галочку в соответсвующих местах при запуске нового торрента. По возможности, желательно не удалять старые серии как можно дольше, чтобы релизёр не столько продолжал раздавать старые серии, а смог сконцентрироваться на новых.
pb.wtf



Скачать Чудотворцы через торрент https://i109.fastpic.ru/big/2019/0216/e0/2880e6214c59beca01e265ddfd7101e0.png Скачать фильм Чудотворцы через торрент бесплантно в хорошем качестве Описание:Небесная канцелярия Бога — масштабный офис с множеством отделов и сотрудников, работающих в атмосфере цейтнота и многозадачности. ... 10 10 5
Торрент: Зарегистрирован [2019-04-17 18:22] · скачан: 56 раз
Статус: √ проверено
Размер: 3.69 GB
Как cкачать? Как скачать Чудотворцы через торрент | qTorrent

% Раздел Тема Автор DL S | L
Зарубежные сериалы [ 1.81 GB ] Чудотворцы / Miracle Workers / Сезон: 1 / Серии: 1-7 из 7 [2019 WEBRip] VO [Кураж-Бамбей] bober100 Скачать
2 | 0
Зарубежные сериалы [ 453 MB ] Чудотворцы / Miracle Workers / Сезон: 2 / Серии 1- из 7 [2020 HDTVRip 720p] [MVO] killermax2013 Скачать
1 | 0
Зарубежные сериалы [ 1.55 GB ] Чудотворцы / Miracle Workers / Сезон: 1 / Серии 1-7 из 7 [2019 WEBRip] [MVO] killermax2013 Скачать
2 | 0
Зарубежные сериалы [ 7.46 GB ] Чудотворцы / Miracle Workers / Сезон: 1 / Серии 1-7 из 7 [2019 WEBRip 1080p] [MVO] killermax2013 Скачать
2 | 0
Зарубежные сериалы [ 5.96 GB ] Чудотворцы / Miracle Workers / Сезон: 1 / Серии: 1-7 из 7 [2019 WEBRip 720p] MVO [Good People] bober100 Скачать
1 | 0
Зарубежные сериалы [ 1.71 GB ] Чудотворцы / Miracle Workers / Сезон: 1 / Серии: 1-7 из 7 [2019 WEB-DLRip] MVO [Good People] bober100 Скачать
1 | 0
Зарубежные сериалы [ 10.37 GB ] Чудотворцы / Miracle Workers / Сезон: 1 / Серии: 1-7 из 7 [2019 WEBRip 1080p] MVO [TVShows] bober100 Скачать
1 | 0

28-11-2019 20:33  

Отключить всю рекламу на сайте

    Дорогой пользователь! Огромная просьба, поблагодарите релизера, оцените раздачу и оставьте свои комментарий, если Вы скачали Чудотворцы через торрент бесплатно! Внесите свою лепту в развитие PiratBit!
    Комментировать посты могут только пользователи прошедшие не сложную регистрацию
    Показать сообщения:    

    Чудотворцы через торрент
    Скачать бесплатно Чудотворцы
    Чудотворцы скачать торрент
    Чудотворцы смотреть онлайн
    Cкачать фильм Чудотворцы бесплатно
    Чудотворцы скачать торрент в хорошем качестве
    Чудотворцы смотреть онлайн бесплатно в хорошем качестве


    Вы не можете начинать темы
    Вы не можете отвечать на сообщения
    Вы не можете редактировать свои сообщения
    Вы не можете удалять свои сообщения
    Вы не можете голосовать в опросах
    Вы не можете прикреплять файлы к сообщениям
    Вы можете скачивать файлы