Ссылка на приватное зеркало нашего сайта всего за 1$. Внимание количество ограничено!!!

2 сезон

iTunes

1 сезон

1

iTunes

iTunes

iTunes

1 сезон

RePack

30

ИГРА 18+

pack

ВАЖНО

!!Акция!!

Alien_RageХит недели

RePack

MK11
pack

Забери бонус

RePack

jed

!!Акция!!

Alien_Rage

RePack

fifa19

RePack

Assassins Creed: Odyssey

RePack

NEED FOR SPEED™ PAYBACK

4 сезон

9 сезон

Бесстыжие 9 сезон

Все сериалы

все сериалы на PB.wtf

RePack

FAR CRY 5
  

Месть на десерт / Серии: 1-4 из 4 (Александр Хван) [2019, Детектив, SATRip] pb.wtf

Месть на десерт через торрент pb.wtf

Размер: 2.34 GB | Добавлен: 1 год 8 мес. назад | Торрент скачан:73 раза
Скачать  

16-02-2019 19:21 Месть на десерт Скачать торрент  

Месть на десерт Год выпуска: 2019
Страна: Россия
Жанр: Детектив
Продолжительность: ~ 00:46:00
Субтитры: отсутствуют

Режиссер: Александр Хван



В ролях:

Полина Кузьминская, Алексей Демидов, Виктория Маслова, Тимур Орагвелидзе, Ирина Фролова, Виктория Белякова, Павел Клячин, Сергей Шаталов, Любовь Франк, Татьяна Шумова, Борис Покровский, Степан Лапин, Александр Басов, Святослав Насташевский

Описание:

Мария и Андрей Быстровы – следователи Следственного Комитета. Узнав, что муж ей изменил, Мария назло ему встречается с бывшим поклонником. Вскоре она понимает, что беременна. Брак Быстровых рушится, однако новое расследование им приходится вести вместе. Отравлен бизнесмен. Яд был в пирожном, которое жена Елена привезла ему с работы: она объясняет, что десерт ей оставил в подарок кто-то из пациентов. Подозреваемый быстро находится. Но когда дело кажется раскрытым, в жизни Елены происходит новая драма. Становится ясно, что у нее есть тайный враг, который придумал изощренный план мести. Но Елена не может вспомнить, кому перешла дорогу...

Качество: SATRip
Формат: AVI

Видео: XviD ~ 1650 Кбит/с, 720x400
Аудио: MP3, 2 ch, 192 Кбит/с
скриншот   скриншот   скриншот  

Общее
Полное имя : D:\Mest.na.desert.2018.XviD.SATRip.25Kuzmich\Mest.na.desert.(01.seriya.iz.04).XviD.SATRip.25Kuzmich.avi
Формат : AVI
Формат/Информация : Audio Video Interleave
Размер файла : 600 Мбайт
Продолжительность : 45 м. 37 с.
Общий поток : 1839 Кбит/сек
Программа кодирования : VirtualDubMod 1.5.10.3 | www.virtualdub-fr.org || (build 2550/release)
Библиотека кодирования : VirtualDubMod build 2550/release

Видео
Идентификатор : 0
Формат : MPEG-4 Visual
Профиль формата : Advanced Simple@L5
Параметр BVOP формата : 1
Параметр QPel формата : Нет
Параметр GMC формата : Без точки перехода
Параметр матрицы формата : Default (MPEG)
Идентификатор кодека : XVID
Идентификатор кодека/Подсказка : XviD
Продолжительность : 45 м. 37 с.
Битрейт : 1637 Кбит/сек
Ширина : 720 пикселей
Высота : 400 пикселей
Соотношение сторон : 16:9
Частота кадров : 25,000 кадров/сек
Цветовое пространство : YUV
Субдискретизация насыщенности : 4:2:0
Битовая глубина : 8 бит
Тип развёртки : Прогрессивная
Метод сжатия : С потерями
Бит/(Пиксели*Кадры) : 0.227
Размер потока : 534 Мбайт (89%)
Библиотека кодирования : XviD 65

Аудио
Идентификатор : 1
Формат : MPEG Audio
Версия формата : Version 1
Профиль формата : Layer 3
Режим : Joint stereo
Идентификатор кодека : 55
Идентификатор кодека/Подсказка : MP3
Продолжительность : 45 м. 37 с.
Вид битрейта : Постоянный
Битрейт : 192 Кбит/сек
Каналы : 2 канала
Частота : 48,0 КГц
Метод сжатия : С потерями
Размер потока : 62,6 Мбайт (10%)
Выравнивание : Соединение по промежуткам
Продолжительность промежутка : 40 мс. (1,00 видеокадр)
Время предзагрузки промежутка : 504 мс.
Библиотека кодирования : LAME3.99r
Настройки программы : -m j -V 4 -q 2 -lowpass 18.6 -b 192

pb.wtf



Скачать Месть на десерт через торрент http://lostpix.com/img/2019-02/16/q7ot67ewl5mheso4y53zptx8i.jpg Скачать фильм Месть на десерт через торрент бесплантно в хорошем качестве Описание: Мария и Андрей Быстровы – следователи Следственного Комитета. Узнав, что муж ей изменил, Мария назло ему встречается с бывшим ... 10 10 5
Торрент: Зарегистрирован [2019-02-16 19:21] · скачан: 73 раз
Статус: √ проверено
Размер: 2.34 GB
Как cкачать? Как скачать Месть на десерт через торрент | qTorrent

% Раздел Тема Автор DL S | L
Наши сериалы [ 3.53 GB ] Месть на десерт / Серии: 1-4 из 4 [2019 WEB-DL 720p] bober100 Скачать
1 | 0
Наши сериалы [ 2.27 GB ] Месть на десерт / Серии: 1-4 из 4 [2019 WEB-DLRip-AVC] bober100 Скачать
1 | 0
Наши сериалы [ 6.79 GB ] Месть на десерт / Серии: 1-4 из 4 [2019 WEB-DL 1080p] bober100 Скачать
1 | 0
Наши сериалы [ 2.18 GB ] Месть на десерт / Серии: 1-4 из 4 [2019 WEB-DLRip] bober100 Скачать
1 | 0
Наши сериалы [ 2.24 GB ] Месть на десерт / Серии: 1-4 из 4 [2019 SATRip-AVC] aleksan55 Скачать
1 | 0

28-11-2019 20:33  

Отключить всю рекламу на сайте

    Дорогой пользователь! Огромная просьба, поблагодарите релизера, оцените раздачу и оставьте свои комментарий, если Вы скачали Месть на десерт через торрент бесплатно! Внесите свою лепту в развитие PiratBit!
    Комментировать посты могут только пользователи прошедшие не сложную регистрацию
    Показать сообщения:    

    Месть на десерт через торрент
    Скачать бесплатно Месть на десерт
    Месть на десерт скачать торрент
    Месть на десерт смотреть онлайн
    Cкачать фильм Месть на десерт бесплатно
    Месть на десерт скачать торрент в хорошем качестве
    Месть на десерт смотреть онлайн бесплатно в хорошем качестве


    Вы не можете начинать темы
    Вы не можете отвечать на сообщения
    Вы не можете редактировать свои сообщения
    Вы не можете удалять свои сообщения
    Вы не можете голосовать в опросах
    Вы не можете прикреплять файлы к сообщениям
    Вы можете скачивать файлы