Ссылка на приватное зеркало нашего сайта всего за 1$. Внимание количество ограничено!!!

2 сезон

iTunes

1 сезон

1

iTunes

iTunes

iTunes

1 сезон

RePack

30

ИГРА 18+

pack

ВАЖНО

!!Акция!!

Alien_RageХит недели

RePack

MK11
pack

Забери бонус

RePack

jed

!!Акция!!

Alien_Rage

RePack

fifa19

RePack

Assassins Creed: Odyssey

RePack

NEED FOR SPEED™ PAYBACK

4 сезон

9 сезон

Бесстыжие 9 сезон

Все сериалы

все сериалы на PB.wtf

RePack

FAR CRY 5
  

Месть на десерт / Серии: 1-4 из 4 (Александр Хван) [2019, Детектив, WEB-DLRip] pb.wtf

Месть на десерт через торрент pb.wtf

Размер: 2.18 GB | Добавлен: 1 год 8 мес. назад | Торрент скачан:163 раза
Скачать  

16-02-2019 19:52 Месть на десерт Скачать торрент  

Месть на десерт Год выпуска: 2019
Страна: Россия
Жанр: Детектив
Продолжительность: ~ 00:46:00
Перевод: Не требуется
Субтитры: отсутствуют

Режиссер: Александр Хван



В ролях:

Полина Кузьминская, Алексей Демидов, Виктория Маслова, Тимур Орагвелидзе, Ирина Фролова, Виктория Белякова, Павел Клячин, Сергей Шаталов, Любовь Франк, Татьяна Шумова, Борис Покровский, Степан Лапин, Александр Басов, Святослав Насташевский

Описание:

Мария и Андрей Быстровы – следователи Следственного Комитета. Узнав, что муж ей изменил, Мария назло ему встречается с бывшим поклонником. Вскоре она понимает, что беременна. Брак Быстровых рушится, однако новое расследование им приходится вести вместе. Отравлен бизнесмен. Яд был в пирожном, которое жена Елена привезла ему с работы: она объясняет, что десерт ей оставил в подарок кто-то из пациентов. Подозреваемый быстро находится. Но когда дело кажется раскрытым, в жизни Елены происходит новая драма. Становится ясно, что у нее есть тайный враг, который придумал изощренный план мести. Но Елена не может вспомнить, кому перешла дорогу...

Качество: WEB-DLRip
Формат: AVI

Видео: XviD build 73, 720x400 (16:9), 25.000 fps, ~ 1500 Kbps (~ 0.200 bit/pixel)
Аудио: 48.0 kHz, AC3, 2/0 ch, 192 kbps
скриншот  скриншот  скриншот  скриншот  скриншот  

General
Complete name : D:RazdachiMestj.Na.Desert.2018.WEB-DLRip.GeneralFilmMestj.Na.Desert.e01.avi
Format : AVI
Format/Info : Audio Video Interleave
File size : 557 MiB
Duration : 45 min 46 s
Overall bit rate : 1 702 kb/s
Writing application : VirtualDubMod 1.5.10.3 | www.virtualdub-fr.org || (build 2550/release)
Writing library : VirtualDubMod build 2550/release

Video
ID : 0
Format : MPEG-4 Visual
Format profile : Advanced Simple@L5
Format settings : BVOP1 / Custom Matrix
Format settings, BVOP : 1
Format settings, QPel : No
Format settings, GMC : No warppoints
Format settings, Matrix : Custom
Codec ID : XVID
Codec ID/Hint : XviD
Duration : 45 min 46 s
Bit rate : 1 500 kb/s
Width : 720 pixels
Height : 400 pixels
Display aspect ratio : 16:9
Frame rate : 25.000 FPS
Color space : YUV
Chroma subsampling : 4:2:0
Bit depth : 8 bits
Scan type : Progressive
Compression mode : Lossy
Bits/(Pixel*Frame) : 0.208
Stream size : 491 MiB (88%)
Writing library : XviD 73

Audio
ID : 1
Format : AC-3
Format/Info : Audio Coding 3
Commercial name : Dolby Digital
Codec ID : 2000
Duration : 45 min 46 s
Bit rate mode : Constant
Bit rate : 192 kb/s
Channel(s) : 2 channels
Channel layout : L R
Sampling rate : 48.0 kHz
Frame rate : 31.250 FPS (1536 SPF)
Bit depth : 16 bits
Compression mode : Lossy
Stream size : 62.9 MiB (11%)
Alignment : Split accross interleaves
Interleave, duration : 40 ms (1.00 video frame)
Interleave, preload duratio : 500 ms
Service kind : Complete Main

pb.wtf



Скачать Месть на десерт через торрент http://lostpix.com/img/2019-02/16/q7ot67ewl5mheso4y53zptx8i.jpg Скачать фильм Месть на десерт через торрент бесплантно в хорошем качестве Описание: Мария и Андрей Быстровы – следователи Следственного Комитета. Узнав, что муж ей изменил, Мария назло ему встречается с бывшим ... 10 10 5
Торрент: Зарегистрирован [2019-02-16 19:52] · скачан: 163 раз
Статус: √ проверено
Размер: 2.18 GB
Как cкачать? Как скачать Месть на десерт через торрент | qTorrent

% Раздел Тема Автор DL S | L
Наши сериалы [ 3.53 GB ] Месть на десерт / Серии: 1-4 из 4 [2019 WEB-DL 720p] bober100 Скачать
1 | 0
Наши сериалы [ 2.27 GB ] Месть на десерт / Серии: 1-4 из 4 [2019 WEB-DLRip-AVC] bober100 Скачать
1 | 0
Наши сериалы [ 6.79 GB ] Месть на десерт / Серии: 1-4 из 4 [2019 WEB-DL 1080p] bober100 Скачать
1 | 0
Наши сериалы [ 2.34 GB ] Месть на десерт / Серии: 1-4 из 4 [2019 SATRip] bober100 Скачать
1 | 0
Наши сериалы [ 2.24 GB ] Месть на десерт / Серии: 1-4 из 4 [2019 SATRip-AVC] aleksan55 Скачать
1 | 0

28-11-2019 20:33  

Отключить всю рекламу на сайте

    Дорогой пользователь! Огромная просьба, поблагодарите релизера, оцените раздачу и оставьте свои комментарий, если Вы скачали Месть на десерт через торрент бесплатно! Внесите свою лепту в развитие PiratBit!
    Комментировать посты могут только пользователи прошедшие не сложную регистрацию
    Показать сообщения:    

    Месть на десерт через торрент
    Скачать бесплатно Месть на десерт
    Месть на десерт скачать торрент
    Месть на десерт смотреть онлайн
    Cкачать фильм Месть на десерт бесплатно
    Месть на десерт скачать торрент в хорошем качестве
    Месть на десерт смотреть онлайн бесплатно в хорошем качестве


    Вы не можете начинать темы
    Вы не можете отвечать на сообщения
    Вы не можете редактировать свои сообщения
    Вы не можете удалять свои сообщения
    Вы не можете голосовать в опросах
    Вы не можете прикреплять файлы к сообщениям
    Вы можете скачивать файлы