Всегда рабочее зеркало без VPN и Proxy просто перед .vidak.icu напиши любое слово или цифру, Пример http://u1xh.vidak.icu

MVO

Лицензия

1 сезон

1

1 сезон

iTunes

1 сезон

13

1 сезон

Deluxe

pack

Рекомендуем

Пиратка

30

ВАЖНО

RePack

MK11

RePack

jed

RePack

fifa19

RePack

RDR2

RePack

NEED FOR SPEED™ PAYBACK

Кинопоиск HD

6 сезон

 Острые козырьки 6 сезон

Все сериалы

все сериалы на PB.wtf

RePack

FAR CRY 5

Anonymous, нам критически не хватает 2100 руб. на оплату серверов и переферии за МАЙ, помоги нам пожалуйста, вся надежда только на тебя. В благодарность мы отключим тебе всю рекламу на сайте!

×
  
Magnet ссылка

Принц-дракон / The Dragon Prince / Сезон: 2 / Серии: 1- из 9 (Джастин Ричмонд) [2019, Мультсериал, фантастика, WEB-DLRip] MVO [AlexFilm] pb.wtf

Принц-дракон через торрент pb.wtf

Размер: 354 MB | Добавлен: 3 года 4 мес. назад | Торрент скачан:16 раз
Смотреть онлайн Принц-дракон | Скачать    Ребята, помогите собрать деньги на оплату серверов!!!

16-02-2019 20:39 Принц-дракон Скачать торрент  

Принц-дракон / The Dragon Prince Страна: США
Жанр: Мультсериал, фантастика
Продолжительность серии: 00:24:00
Год выпуска: 2019
Перевод: Профессиональный (многоголосый закадровый) | AlexFilm
Субтитры: Русские, Английские [Netflix]; внешним файлом (srt)

Режиссёр: Джастин Ричмонд

Роли озвучивали:

Паула Берроуз, Джек Де Сена, Саша Роджен

Описание:

Сюжет истории пойдет о двух принцах, которые объединят свои силы с эльфом, которому было поручено убить их. Вместе они начнут своё удивительное путешествие, чтобы улучшить мир людей. В мультсериале вы увидите много экшена, сражений, невероятные приключения героев мультика, а также драконов.

Семпл: http://multi-up.com/1223934
rating


Качество: WEB-DLRip
Формат: AVI

Видео: 720x400 (1.80:1), 23.976 fps, XviD build 50 ~1497 kbps avg, 0.22 bit/pixel
Аудио 1: 48 kHz, MPEG Layer 3, 2 ch, ~192.00 kbps avg (Rus)
Аудио 2: 48 kHz, MPEG Layer 3, 2 ch, ~192.00 kbps avg (Eng)
Перевод: Анна Якименко
Роли озвучивали: Екатерина Муравицкая, Алёна Левичева, Леонид Дмитриев, Кирилл Патрино, Константин Федосеев, Михаил Федосеев

Рип и очистка от рекламы: westgun
Общее
Полное имя : D:\Видео\Сериалы\400p\The Dragon Prince (S02)\The.Dragon.Prince.s02e01.avi
Формат : AVI
Формат/Информация : Audio Video Interleave
Размер файла : 354 Мбайт
Продолжительность : 26 м. 4 с.
Общий поток : 1897 Кбит/сек
Программа кодирования : VirtualDubMod 1.5.10.2 (build 2540/release)
Библиотека кодирования : VirtualDubMod build 2540/release

Видео
Идентификатор : 0
Формат : MPEG-4 Visual
Профиль формата : Advanced Simple@L5
Настройки формата : BVOP1
Параметр BVOP формата : 1
Параметр QPel формата : Нет
Параметр GMC формата : Без точки перехода
Параметр матрицы формата : Default (H.263)
Идентификатор кодека : XVID
Идентификатор кодека/Подсказка : XviD
Продолжительность : 26 м. 4 с.
Битрейт : 1499 Кбит/сек
Ширина : 720 пикселей
Высота : 400 пикселей
Соотношение сторон : 16:9
Частота кадров : 23,976 (24000/1001) кадра/сек
Цветовое пространство : YUV
Субдискретизация насыщенности : 4:2:0
Битовая глубина : 8 бит
Тип развёртки : Прогрессивная
Метод сжатия : С потерями
Бит/(Пиксели*Кадры) : 0.217
Размер потока : 280 Мбайт (79%)
Библиотека кодирования : XviD 1.2.1 (UTC 2008-12-04)

Аудио #1
Идентификатор : 1
Формат : MPEG Audio
Версия формата : Version 1
Профиль формата : Layer 3
Настройки формата : Joint stereo / MS Stereo
Идентификатор кодека : 55
Идентификатор кодека/Подсказка : MP3
Продолжительность : 26 м. 4 с.
Вид битрейта : Постоянный
Битрейт : 192 Кбит/сек
Каналы : 2 канала
Частота : 48,0 КГц
Метод сжатия : С потерями
Размер потока : 35,8 Мбайт (10%)
Выравнивание : Соединение по промежуткам
Продолжительность промежутка : 42 мс. (1,00 видеокадр)
Время предзагрузки промежутка : 504 мс.

Аудио #2
Идентификатор : 2
Формат : MPEG Audio
Версия формата : Version 1
Профиль формата : Layer 3
Настройки формата : Joint stereo / MS Stereo
Идентификатор кодека : 55
Идентификатор кодека/Подсказка : MP3
Продолжительность : 26 м. 4 с.
Вид битрейта : Постоянный
Битрейт : 192 Кбит/сек
Каналы : 2 канала
Частота : 48,0 КГц
Частота кадров : 41,667 кадра/сек (1152 SPF)
Метод сжатия : С потерями
Размер потока : 35,8 Мбайт (10%)
Выравнивание : Соединение по промежуткам
Продолжительность промежутка : 42 мс. (1,00 видеокадр)
Время предзагрузки промежутка : 504 мс.
скриншот  скриншот  скриншот  скриншот  скриншот  
pb.wtf



Скачать Принц-дракон через торрент https://i110.fastpic.ru/big/2019/0216/57/6b626cd36cd11f08a021f39451385857.jpg Скачать, смотреть онлайн Принц-дракон бесплантно в хорошем качестве Описание: Сюжет истории пойдет о двух принцах, которые объединят свои силы с эльфом, которому было поручено убить их. Вместе они начнут ... 10 10 2
Торрент: Зарегистрирован [2019-02-16 20:39] · скачан: 16 раз
Статус: √ проверено
Размер: 354 MB
Как cкачать? Как скачать Принц-дракон через торрент | UTorrent

% Раздел Тема Автор DL S | L
Мультсериалы [ 7.53 GB ] Принц-дракон / The Dragon Prince / Сезон: 2 / Серии: 1-9 из 9 [2019 WEB-DL 1080p] + [MVO] killermax2013 Скачать
1 | 0

28-11-2019 20:33  

Отключить всю рекламу на сайте

    Дорогой пользователь! Огромная просьба, поблагодарите релизера, оцените раздачу и оставьте свои комментарий, если Вы скачали Принц-дракон через торрент бесплатно!
    Комментировать посты могут только пользователи прошедшие не сложную регистрацию
    Показать сообщения:    

    Принц-дракон через торрент
    Скачать бесплатно Принц-дракон
    Принц-дракон скачать торрент
    Принц-дракон смотреть онлайн
    Cкачать фильм Принц-дракон бесплатно
    Принц-дракон скачать торрент в хорошем качестве
    Принц-дракон смотреть онлайн бесплатно в хорошем качестве


    Вы не можете начинать темы
    Вы не можете отвечать на сообщения
    Вы не можете редактировать свои сообщения
    Вы не можете удалять свои сообщения
    Вы не можете голосовать в опросах
    Вы не можете прикреплять файлы к сообщениям
    Вы можете скачивать файлы