2 сезон

iTunes

MVO

1

2 сезон

iTunes

iTunes

1 сезон

RePack

30

Новинка

ВАЖНО

ИГРА 18+

pack

RePack

MK11
pack

Легкие деньги

RePack

jed

RePack

fifa19

RePack

RDR2

RePack

NEED FOR SPEED™ PAYBACK

4 сезон

9 сезон

Бесстыжие 9 сезон

Все сериалы

все сериалы на PB.wtf

RePack

FAR CRY 5

Anonymous, добрый день, мы не успеваем собрать деньги на оплату серверов за декабрь и январь, помогите нам пожалуйста в это трудное время. В качестве благодарности мы отключим Вам всю рекламу на сайте (укажите свой ник в строку Ваше имя)!

×
  
Magnet ссылка

Дедушка легкого поведения / Dirty Grandpa (Дэн Мазер) [2015, комедия, UHD BDRemux 2160p] DUB [Dolby Vision TV] pb.wtf

Дедушка легкого поведения через торрент pb.wtf

Размер: 51.88 GB | Добавлен: 1 год 11 мес. назад | Торрент скачан:16 раз
Скачать  

17-02-2019 04:08 Дедушка легкого поведения Скачать торрент  

Дедушка легкого поведения / Dirty Grandpa««This is Jason. He's a little worried about his grandpa»»

Год выпуска: 2015
Страна: США
Жанр: комедия
Продолжительность: 01:42:21
Перевод: Дублированный
Режиссер: Дэн Мазер
В ролях:

Роберт Де Ниро (Dick Kelly), Зак Эфрон (Jason Kelly), Зои Дойч (Shadia), Обри Плаза (Lenore), Джейсон Манцукас (Tan Pam), Дермот Малруни (David Kelly), Джулианна Хаф (Meredith), Джеффри Бауэр-Чепман (Bradley), Брэндон Майкал Смит (Tyrone), Джейк Пикинг (Cody), Майкл Хадсон (Brah), Адам Палли (Cousin Nick)
Описание:
Джейсон, покладистый правильный парень, накануне свадьбы вляпывается в увеселительную поездку к морю со своим дедом, отставным генералом с легким нравом, бурной фантазией и вполне определенными потребностями... И, похоже, дедские каникулы изменят жизнь Джейсона навсегда!
Рейтинг:

MPAA: R - Лицам до 17 лет обязательно присутствие взрослого
Качество: UHD BDRemux 2160p |
Формат: MP4
Видео: HEVC, HDR, 64.6 Мбит/с, 3840x2160, 23.976 Кадр/с
Аудио: русский / AC3 / 5.1 / 48 kHz / 384 kbps /
Данный вид релизов (контейнер MP4) предназначен для встроенного в ТВ (соответственно, с поддержкой DV) плеер.
Т.Е. Можно использовать как USB flash/HDD, так и DLNA / Plex - подобные сервисы/программы. дополнительный-внешний плеер не обязателен.

Внимание!
На моделях LG 2016 возможны сюрпризы "через раз", 2017-2018 должно идти без сюрпризов )
Общее
Полное имя : Dirty.Grandpa.2016.Theatrical.Cut.UHD.BDRemux.2160p.DV.IVA.RUS.ExKinoRay.mp4
Формат : MPEG-4
Профиль формата : Base Media / Version 2
Идентификатор кодека : mp42 (mp42/iso6/isom/msdh/dby1)
Размер файла : 51,9 Гбайт
Продолжительность : 1 ч. 42 м.
Общий поток : 72,8 Мбит/сек
Дата кодирования : UTC 2019-02-16 18:13:50
Дата пометки : UTC 2019-02-16 18:13:50

Видео #1
Идентификатор : 1
Формат : HEVC
Формат/Информация : High Efficiency Video Coding
Коммерческое название : HDR10
Профиль формата : Main 10@L5.1@High
Идентификатор кодека : hev1
Идентификатор кодека/Информация : High Efficiency Video Coding
Продолжительность : 1 ч. 42 м.
Битрейт : 64,6 Мбит/сек
Ширина : 3840 пикселей
Высота : 2160 пикселей
Соотношение сторон : 16:9
Режим частоты кадров : Постоянный
Частота кадров : 23,976 (24000/1001) кадра/сек
Цветовое пространство : YUV
Субдискретизация насыщенности : 4:2:0 (Type 2)
Битовая глубина : 10 бит
Бит/(Пиксели*Кадры) : 0.325
Размер потока : 46,0 Гбайт (89%)
Default : Нет
Дата кодирования : UTC 2019-02-16 18:13:50
Дата пометки : UTC 2019-02-16 18:13:50
Цветовой диапазон : Limited
Основные цвета : BT.2020
Характеристики трансфера : PQ
Коэффициенты матрицы : BT.2020 non-constant
MasteringDisplay_ColorPrimaries : Display P3
MasteringDisplay_Luminance : min: 0.0050 cd/m2, max: 1000 cd/m2
MaxCLL : 1000 cd/m2
MaxFALL : 427 cd/m2
Codec configuration box : hvcC

Видео #2
Идентификатор : 2
Формат : HEVC
Формат/Информация : High Efficiency Video Coding
Коммерческое название : HDR10
Профиль формата : Main 10@L5.1@High
Dolby Vision : 1.0, dvhe.07.06, EL+RPU
Идентификатор кодека : dvhe
Идентификатор кодека/Информация : High Efficiency Video Coding with Dolby Vision
Продолжительность : 1 ч. 42 м.
Битрейт : 7829 Кбит/сек
Ширина : 1920 пикселей
Высота : 1080 пикселей
Соотношение сторон : 16:9
Режим частоты кадров : Постоянный
Частота кадров : 23,976 (24000/1001) кадра/сек
Цветовое пространство : YUV
Субдискретизация насыщенности : 4:2:0 (Type 2)
Битовая глубина : 10 бит
Бит/(Пиксели*Кадры) : 0.157
Размер потока : 5,58 Гбайт (11%)
Default : Нет
Дата кодирования : UTC 2019-02-16 18:13:50
Дата пометки : UTC 2019-02-16 18:13:50
Цветовой диапазон : Limited
Основные цвета : BT.2020
Характеристики трансфера : PQ
Коэффициенты матрицы : BT.2020 non-constant
MasteringDisplay_ColorPrimaries : Display P3
MasteringDisplay_Luminance : min: 0.0050 cd/m2, max: 1000 cd/m2
Codec configuration box : hvcC+dvcC

Аудио
Идентификатор : 3
Формат : AC-3
Формат/Информация : Audio Coding 3
Коммерческое название : Dolby Digital
Идентификатор кодека : ac-3
Продолжительность : 1 ч. 42 м.
Вид битрейта : Постоянный
Битрейт : 384 Кбит/сек
Каналы : 6 каналов
Channel layout : L R C LFE Ls Rs
Частота : 48,0 КГц
Частота кадров : 31,250 кадров/сек (1536 SPF)
Битовая глубина : 16 бит
Метод сжатия : С потерями
Размер потока : 280 Мбайт (1%)
Язык : Russian
ServiceKind/String : Complete Main
Default : Нет
Дата кодирования : UTC 2019-02-16 18:13:50
Дата пометки : UTC 2019-02-16 18:13:50
pb.wtf



Скачать Дедушка легкого поведения через торрент https://b.radikal.ru/b09/1902/e6/3bfbe3a0c195.png Скачать фильм Дедушка легкого поведения через торрент бесплантно в хорошем качестве Описание: Джейсон, покладистый правильный парень, накануне свадьбы вляпывается в увеселительную поездку к морю со своим дедом, отставным ... 10 10 4
Info! Золотая раздача, скачанное не засчитывается.
Торрент: Зарегистрирован [2019-02-17 04:08] · скачан: 16 раз
Статус: √ проверено
Размер: 51.88 GB
Как cкачать? Как скачать Дедушка легкого поведения через торрент | UTorrent

% Раздел Тема Автор DL S | L
R.G. Resident & PiratVoice - Фильмы, Видео [ 5.12 GB ] Дедушка легкого поведения / Dirty Grandpa [2016 BDRip 720р] ] schultz Скачать
1 | 0
Ultra HD (UHD: 2K, 4K, 8K) — видео сверхвысокой чёткости [ 57.84 GB ] Дедушка легкого поведения / Dirty Grandpa [2016 UHD BDRemux 2160p] [Театральная версия] [HDR: Dolby Vision + HDR10] bober100 Скачать
1 | 0
Ultra HD (UHD: 2K, 4K, 8K) — видео сверхвысокой чёткости [ 50.07 GB ] Дедушка легкого поведения / Dirty Grandpa [2016 UHD BDRemux 2160p] [Театральная версия] bober100 Скачать
1 | 0
Фильмы [HD 720p, 1080p] (Хороший звук DUB, MVO) [ 6.67 GB ] Дедушка легкого поведения / Dirty Grandpa [2016 BDRip 720p] [Unrated Cut] Dub potroks Скачать
1 | 0
Фильмы 2016 [DVDrip, WEB-DLRip, HDrip] (DUB, MVO) [ 1.46 GB ] Дедушка легкого поведения / Dirty Grandpa [2016 BDRip-AVC от sokol_ok] [Расширенная версия] Dub sokol_ok Скачать
2 | 0
Фильмы (Blu-ray, BD-Remux, HDDVD) [ 29.65 GB ] Дедушка легкого поведения / Dirty Grandpa [2016 BDRemux 1080p] от ExKinoRay / Расширенная версия / Russian Mafia Скачать
2 | 0
Фильмы 2016 [DVDrip, WEB-DLRip, HDrip] (DUB, MVO) [ 2.13 GB ] Дедушка легкого поведения / Dirty Grandpa [2016 BDRip-AVC] [Unrated Cut] Dub potroks Скачать
1 | 0

28-11-2019 20:33  

Отключить всю рекламу на сайте

    Дорогой пользователь! Огромная просьба, поблагодарите релизера, оцените раздачу и оставьте свои комментарий, если Вы скачали Дедушка легкого поведения через торрент бесплатно! Внесите свою лепту в развитие PiratBit!
    Комментировать посты могут только пользователи прошедшие не сложную регистрацию
    Показать сообщения:    

    Дедушка легкого поведения через торрент
    Скачать бесплатно Дедушка легкого поведения
    Дедушка легкого поведения скачать торрент
    Дедушка легкого поведения смотреть онлайн
    Cкачать фильм Дедушка легкого поведения бесплатно
    Дедушка легкого поведения скачать торрент в хорошем качестве
    Дедушка легкого поведения смотреть онлайн бесплатно в хорошем качестве


    Вы не можете начинать темы
    Вы не можете отвечать на сообщения
    Вы не можете редактировать свои сообщения
    Вы не можете удалять свои сообщения
    Вы не можете голосовать в опросах
    Вы не можете прикреплять файлы к сообщениям
    Вы можете скачивать файлы