Ссылка на приватное зеркало всего за 1$. Внимание количество ограничено!!!

OK

1+1

iTunes

мы

OK

1

WEB-DLRip

Джокер

Пифагор

Ведьмак / The Witcher сериал

iTunes

ПШазам

ОК

Оно 2

iTunes

30
pack

Вам бонус

ВАЖНО

!!Акция!!

Alien_RageХит недели

RePack

Resident Evil 21

ИГРА 18+

pack

RePack

jed

RePack

fifa19

RePack

Assassins Creed: Odyssey

RePack

NEED FOR SPEED™ PAYBACK

4 сезон

9 сезон

Бесстыжие 9 сезон

Все сериалы

все сериалы на PB.wtf

RePack

FAR CRY 5
  

Пепел – самый чистый белый / Jiang hu er nv / Ash is Purest White (Цзя Чжанкэ) [2018, драма, мелодрама, WEB-DL 720p] MVO [КОЛОБОК] pb.wtf

Пепел – самый чистый белый через торрент pb.wtf

Размер: 4.59 GB | Добавлен: 11 мес. назад | Торрент скачан:24 раза
Скачать  

17-02-2019 06:48 Пепел – самый чистый белый Скачать торрент  

Пепел – самый чистый белый / Jiang hu er nv / Ash is Purest White Год выпуска: 2018
Страна: Китай, Франция, Япония
Жанр: драма, мелодрама
Продолжительность: 02:17:23
Перевод: Любительский (многоголосый) | КОЛОБОК
Субтитры: отсутствуют

Режиссер: Цзя Чжанкэ

rating

В ролях:

Чжао Тао, Ляо Фань, Дяо Иньань, Фэн Сяоган, Каспер Лянг, Сюй Чжэн, Чжан Ибай

Описание:

2001 год, индустриальный округ Датун провинции Шаньси. Молодая танцовщица Цяо влюбляется в местного гангстера Биня. Во время одной из бандитских разборок, чтобы защитить любимого, девушка делает выстрел, и впоследствии садится в тюрьму на 5 лет. Выйдя из заключения, Цяо отправляется на поиски Биня.

Качество: WEB-DL 720p
Формат: MKV

Видео: h.264,4 402 Кбит/с, 1280x690
Аудио#1: Русский, (AC3, 2 ch, 384 Кбит/с)
скриншот  скриншот  скриншот  

Общее
Уникальный идентификатор : 201538559255932942745488443273689471732 (0x979EEA24AA4946EBA976F25C1BF49AF4)
Полное имя : D:\Ash.is.Purest.White.2018.Pk.WEB-DL.72Op.mkv
Формат : Matroska
Версия формата : Version 2
Размер файла : 4,59 Гбайт
Продолжительность : 2 ч. 17 м.
Режим общего битрейта : Переменный
Общий поток : 4788 Кбит/сек
Дата кодирования : UTC 2019-02-15 06:49:07
Программа кодирования : mkvmerge v8.3.0 ('Over the Horizon') 64bit
Библиотека кодирования : libebml v1.3.1 + libmatroska v1.4.2

Видео
Идентификатор : 1
Формат : AVC
Формат/Информация : Advanced Video Codec
Профиль формата : High@L4.1
Параметр CABAC формата : Да
Параметр RefFrames формата : 4 кадра
Идентификатор кодека : V_MPEG4/ISO/AVC
Продолжительность : 2 ч. 17 м.
Вид битрейта : Переменный
Битрейт : 4402 Кбит/сек
Максимальный битрейт : 5000 Кбит/сек
Ширина : 1280 пикселей
Высота : 690 пикселей
Соотношение сторон : 1,85:1
Режим частоты кадров : Постоянный
Частота кадров : 23,976 (24000/1001) кадра/сек
Стандарт вещания : Component
Цветовое пространство : YUV
Субдискретизация насыщенности : 4:2:0
Битовая глубина : 8 бит
Тип развёртки : Прогрессивная
Бит/(Пиксели*Кадры) : 0.203
Размер потока : 4,13 Гбайт (90%)
Default : Да
Forced : Нет
Цветовой диапазон : Limited
Основные цвета : BT.709
Характеристики трансфера : BT.709
Коэффициенты матрицы : BT.709

Аудио
Идентификатор : 2
Формат : AC-3
Формат/Информация : Audio Coding 3
Расширение режима : CM (complete main)
Параметр Endianness формата : Big
Идентификатор кодека : A_AC3
Продолжительность : 2 ч. 17 м.
Вид битрейта : Постоянный
Битрейт : 384 Кбит/сек
Каналы : 2 канала
Расположение каналов : Front: L R
Частота : 48,0 КГц
Частота кадров : 31,250 кадров/сек (1536 spf)
Метод сжатия : С потерями
Размер потока : 377 Мбайт (8%)
Default : Да
Forced : Нет

pb.wtf



Скачать Пепел – самый чистый белый через торрент https://d.radikal.ru/d03/1902/ad/1e7bb8006d14.jpg Скачать фильм Пепел – самый чистый белый через торрент бесплантно в хорошем качестве Описание: 2001 год, индустриальный округ Датун провинции Шаньси. Молодая танцовщица Цяо влюбляется в местного гангстера Биня. Во время ... 10 10 2
Торрент: Зарегистрирован [2019-02-17 06:48] · скачан: 24 раз
Статус: T временная
Размер: 4.59 GB
Как cкачать? Как скачать Пепел – самый чистый белый через торрент | qTorrent

% Раздел Тема Автор DL S | L
T Фильмы (мультфильмы) cо спонсором показа (Новинки AVI/MKV) [ 2.05 GB ] Пепел – самый чистый белый / Jiang hu er nv / Ash is Purest White [2018 WEB-DLRip] MVO [КОЛОБОК] bober100 Скачать
1 | 0
T Фильмы (мультфильмы) cо спонсором показа (Новинки AVI/MKV) [ 1.37 GB ] Пепел – самый чистый белый / Jiang hu er nv / Ash is Purest White [2018 WEB-DLRip] MVO [КОЛОБОК] bober100 Скачать
1 | 0

28-11-2019 20:33  

Отключить всю рекламу на сайте

    Дорогой пользователь! Огромная просьба, поблагодарите релизера, оцените раздачу и оставьте свои комментарий, если Вы скачали Пепел – самый чистый белый через торрент бесплатно! Внесите свою лепту в развитие PiratBit!
    Комментировать посты могут только пользователи прошедшие не сложную регистрацию
    Показать сообщения:    

    Пепел – самый чистый белый через торрент
    Скачать бесплатно Пепел – самый чистый белый
    Пепел – самый чистый белый скачать торрент
    Пепел – самый чистый белый смотреть онлайн
    Cкачать фильм Пепел – самый чистый белый бесплатно
    Пепел – самый чистый белый скачать торрент в хорошем качестве
    Пепел – самый чистый белый смотреть онлайн бесплатно в хорошем качестве


    Вы не можете начинать темы
    Вы не можете отвечать на сообщения
    Вы не можете редактировать свои сообщения
    Вы не можете удалять свои сообщения
    Вы не можете голосовать в опросах
    Вы не можете прикреплять файлы к сообщениям
    Вы можете скачивать файлы