2 сезон

iTunes

MVO

1

2 сезон

iTunes

iTunes

1 сезон

RePack

30

Новинка

ВАЖНО

ИГРА 18+

pack

RePack

MK11
pack

Легкие деньги

RePack

jed

RePack

fifa19

RePack

RDR2

RePack

NEED FOR SPEED™ PAYBACK

4 сезон

9 сезон

Бесстыжие 9 сезон

Все сериалы

все сериалы на PB.wtf

RePack

FAR CRY 5

Anonymous, добрый вечер, мы не успеваем собрать деньги на оплату серверов за декабрь и январь, помогите нам пожалуйста в это трудное время. В качестве благодарности мы отключим Вам всю рекламу на сайте (укажите свой ник в строку Ваше имя)!

×
  
Magnet ссылка

Хроники Нарнии: Покоритель Зари в 3Д / The Chronicles of Narnia: The Voyage of the Dawn Treader 3D (Майкл Эптид / Michael Apted) [2010, фэнтези, приключения, семейный, BDRip, 1080p] OverUnder / Вертикальная стереопара pb.wtf

Хроники Нарнии: Покоритель Зари в 3Д через торрент pb.wtf

Размер: 27 GB | Добавлен: 1 год 11 мес. назад | Торрент скачан:4 раза
Скачать  

17-02-2019 07:44 Хроники Нарнии: Покоритель Зари в 3Д Скачать торрент  

Хроники Нарнии: Покоритель Зари / The Chronicles of Narnia: The Voyage of the Dawn Treader

Год выпуска: 2010
Страна: США(Twentieth Century Fox Film Corporation)
Жанр: фэнтези, приключения, семейный
Продолжительность: 01:52:40

Перевод: Профессиональный дублированный(Лицензия)
Русские субтитры: нет
Режиссер на русском: Майкл Эптид / Michael Apted

В ролях: Бен Барнс, Скандар Кейнс, Джорджи Хенли, Уилл Поултер, Гари Свит, Тильда Суинтон, Анна Попплуэлл, Уильям Моусли, Лиам Нисон, Саймон Пегг

Описание: Эдмунд, Люси, их кузен Юстас и король Каспиан отплывают на корабле «Покоритель Зари» на поиски друзей отца Каспиана - семи лордов: Ревелиана, Берна, Аргоза, Мавроморна, Октезиана, Рестимара и Рупа, изгнанных во время недолгого правления тирана Мираза.

Сэмпл: http://sendfile.su/1476078

Качество: BDrip, 1080p
Контейнер: MKV
Формат 3D: OverUnder / Вертикальная стереопара
Порядок ракурсов: левый ракурс первый
Видео кодек: x264
Аудио кодек: DTS
Видео: AVC / High@L5.0 / 23,976 fps / 1920х2160 / 31,4 Мбит/сек
Аудио: Русский / DTS / 48 KHz / 5.1 ch / 1510 Кбит/сек(Лицензия)
Аудио 2: Английский / AC3 / 48 KHz / 5.1 ch / 640 Кбит/сек

ВНИМАНИЕ ! На встроенных ТВ-плеерах работать не будет!!!

ТВ Samsung в названии которого есть надпись Ultra HD , и LG Ultra HD 800 серии, LG C6P, Xiaomi Mi TV 2 воспроизводят полные стереопары встроенными плеерами
Железные плееры на которых воспроизводятся полные стереопары:Popcorn C-200 , Dune HD Smart D1 , Dune HD DUO , Dune HD Smart H1 , Dune HD Smart B1 , Dune HD Max , Dune HD TV-303D, Dune HD TV-102, Dune HD Base 3D, Philips HMP7001, Aura HD, MECOOL BB2
Чтобы изображение было на весь экран в плеере выставляем, если рип 1920х1600 - то выставляем 2.35:1 , если 1920х2160 - то выставляем 16:9
Общее
Уникальный идентификатор : 177312438858975814171886252615447347156 (0x85652230675EE1A69118756CD48BFFD4)
Полное имя : F:\закачки\The Chronicles of Narnia The Voyage of the Dawn Treader.Rip by SeRoGa00.mkv
Формат : Matroska
Версия формата : Version 2
Размер файла : 27,0 Гбайт
Продолжительность : 1 ч. 52 м.
Общий поток : 34,2 Мбит/сек
Дата кодирования : UTC 2019-02-17 06:03:22
Программа кодирования : mkvmerge v3.4.0 ('Rapunzel') сборка от May 15 2010 09:38:20
Библиотека кодирования : libebml v0.8.0 + libmatroska v0.9.0

Видео
Идентификатор : 1
Формат : AVC
Формат/Информация : Advanced Video Codec
Профиль формата : High@L5.0
Параметр CABAC формата : Да
Параметр ReFrames формата : 4 кадра
Идентификатор кодека : V_MPEG4/ISO/AVC
Продолжительность : 1 ч. 52 м.
Битрейт : 31,4 Мбит/сек
Ширина : 1920 пикселей
Высота : 2160 пикселей
Соотношение сторон : 0,889
Частота кадров : 23,976 кадра/сек
Цветовое пространство : YUV
Субдискретизация насыщенности : 4:2:0
Битовая глубина : 8 бит
Тип развёртки : Прогрессивная
Бит/(Пиксели*Кадры) : 0.316
Размер потока : 24,8 Гбайт (92%)
Заголовок : Rip by SeRoGa00
Библиотека кодирования : x264 core 155 r2901 7d0ff22
Настройки программы : cabac=1 / ref=4 / deblock=1:-3:-3 / analyse=0x3:0x113 / me=umh / subme=10 / psy=1 / psy_rd=1.00:0.15 / mixed_ref=1 / me_range=24 / chroma_me=1 / trellis=2 / 8x8dct=1 / cqm=0 / deadzone=21,11 / fast_pskip=1 / chroma_qp_offset=-3 / threads=18 / lookahead_threads=6 / sliced_threads=0 / nr=0 / decimate=0 / interlaced=0 / bluray_compat=0 / constrained_intra=0 / bframes=10 / b_pyramid=2 / b_adapt=2 / b_bias=0 / direct=3 / weightb=1 / open_gop=0 / weightp=2 / keyint=250 / keyint_min=23 / scenecut=40 / intra_refresh=0 / rc_lookahead=60 / rc=crf / mbtree=1 / crf=16.5 / qcomp=0.60 / qpmin=10 / qpmax=69 / qpstep=4 / vbv_maxrate=40000 / vbv_bufsize=40000 / crf_max=0.0 / nal_hrd=none / filler=0 / ip_ratio=1.40 / aq=1:1.00
Язык : English
Default : Нет
Forced : Нет

Аудио #1
Идентификатор : 2
Формат : DTS
Формат/Информация : Digital Theater Systems
Идентификатор кодека : A_DTS
Продолжительность : 1 ч. 52 м.
Вид битрейта : Постоянный
Битрейт : 1510 Кбит/сек
Каналы : 6 каналов
Расположение каналов : Front: L C R, Side: L R, LFE
Частота : 48,0 КГц
Битовая глубина : 24 бит
Метод сжатия : С потерями
Размер потока : 1,19 Гбайт (4%)
Язык : Russian
Default : Да
Forced : Нет

Аудио #2
Идентификатор : 3
Формат : AC-3
Формат/Информация : Audio Coding 3
Расширение режима : CM (complete main)
Параметр Endianness формата : Big
Идентификатор кодека : A_AC3
Продолжительность : 1 ч. 52 м.
Вид битрейта : Постоянный
Битрейт : 640 Кбит/сек
Каналы : 6 каналов
Расположение каналов : Front: L C R, Side: L R, LFE
Частота : 48,0 КГц
Битовая глубина : 16 бит
Метод сжатия : С потерями
Размер потока : 517 Мбайт (2%)
Язык : English
Default : Нет
Forced : Нет

Меню
00:00:00.000 : en:00:00:00.000
00:04:28.477 : en:00:04:28.477
00:07:37.040 : en:00:07:37.040
00:11:58.259 : en:00:11:58.259
00:15:22.463 : en:00:15:22.463
00:20:06.288 : en:00:20:06.288
00:27:14.508 : en:00:27:14.508
00:32:20.689 : en:00:32:20.689
00:36:46.371 : en:00:36:46.371
00:39:51.598 : en:00:39:51.598
00:41:56.389 : en:00:41:56.389
00:45:21.928 : en:00:45:21.928
00:47:51.494 : en:00:47:51.494
00:52:52.544 : en:00:52:52.544
00:58:04.940 : en:00:58:04.940
01:01:51.333 : en:01:01:51.333
01:05:43.731 : en:01:05:43.731
01:08:20.805 : en:01:08:20.805
01:10:49.912 : en:01:10:49.912
01:16:55.027 : en:01:16:55.027
01:20:23.569 : en:01:20:23.569
01:23:48.315 : en:01:23:48.315
01:28:23.507 : en:01:28:23.507
01:32:30.462 : en:01:32:30.462
01:35:58.753 : en:01:35:58.753
01:38:07.465 : en:01:38:07.465
01:40:55.549 : en:01:40:55.549
01:45:06.967 : en:01:45:06.967
скриншот  

скриншот  

скриншот  

скриншот  

скриншот  

скриншот  
pb.wtf



Скачать Хроники Нарнии: Покоритель Зари в 3Д через торрент https://c.radikal.ru/c30/1902/50/0c2ecf38ad98.png Скачать фильм Хроники Нарнии: Покоритель Зари в 3Д через торрент бесплантно в хорошем качестве Описание: Эдмунд, Люси, их кузен Юстас и король Каспиан отплывают на корабле «Покоритель Зари» на поиски друзей отца Каспиана - семи ... 10 10 2
Info! Золотая раздача, скачанное не засчитывается.
Торрент: Зарегистрирован [2019-02-17 07:44] · скачан: 4 раз
Статус: √ проверено
Размер: 27 GB
Как cкачать? Как скачать Хроники Нарнии: Покоритель Зари в 3Д через торрент | UTorrent

28-11-2019 20:33  

Отключить всю рекламу на сайте

    Дорогой пользователь! Огромная просьба, поблагодарите релизера, оцените раздачу и оставьте свои комментарий, если Вы скачали Хроники Нарнии: Покоритель Зари в 3Д через торрент бесплатно! Внесите свою лепту в развитие PiratBit!
    Комментировать посты могут только пользователи прошедшие не сложную регистрацию
    Показать сообщения:    

    Хроники Нарнии: Покоритель Зари в 3Д через торрент
    Скачать бесплатно Хроники Нарнии: Покоритель Зари в 3Д
    Хроники Нарнии: Покоритель Зари в 3Д скачать торрент
    Хроники Нарнии: Покоритель Зари в 3Д смотреть онлайн
    Cкачать фильм Хроники Нарнии: Покоритель Зари в 3Д бесплатно
    Хроники Нарнии: Покоритель Зари в 3Д скачать торрент в хорошем качестве
    Хроники Нарнии: Покоритель Зари в 3Д смотреть онлайн бесплатно в хорошем качестве


    Вы не можете начинать темы
    Вы не можете отвечать на сообщения
    Вы не можете редактировать свои сообщения
    Вы не можете удалять свои сообщения
    Вы не можете голосовать в опросах
    Вы не можете прикреплять файлы к сообщениям
    Вы можете скачивать файлы