Ссылка на приватное зеркало всего за 1$. Внимание количество ограничено!!!

OK

1+1

iTunes

мы

OK

1

WEB-DLRip

Джокер

Пифагор

Ведьмак / The Witcher сериал

iTunes

ПШазам

ОК

Оно 2

iTunes

30
pack

Вам бонус

ВАЖНО

!!Акция!!

Alien_RageХит недели

RePack

Resident Evil 21

ИГРА 18+

pack

RePack

jed

RePack

fifa19

RePack

Assassins Creed: Odyssey

RePack

NEED FOR SPEED™ PAYBACK

4 сезон

9 сезон

Бесстыжие 9 сезон

Все сериалы

все сериалы на PB.wtf

RePack

FAR CRY 5
  

Дерево удачи / Happy Log (Гари Р. Тиман) [2016, Драма, приключения, семейный, WEB-DL 720p] MVO ["Синема УС"] pb.wtf

Дерево удачи через торрент pb.wtf

Размер: 3.94 GB | Добавлен: 11 мес. назад | Торрент скачан:13 раз
Скачать  

17-02-2019 17:13 Дерево удачи Скачать торрент  

Дерево удачи / Happy LogГод выпуска: 2016
Страна: США
Жанр: Драма, приключения, семейный
Продолжительность: 01:38:55
Перевод: Любительский (многоголосый) | "Синема УС"
Субтитры: отсутствуют

Режиссер: Гари Р. Тиман

rating

В ролях:

Калеб Медоуз, Брок Патрик Кауфман, Джим Табор, Брайан Мэтни, Билли Девилль, Ледсон Дейн, Брин Энн Дукот, Боуи Хэмилтон, Джэми Йоханссон, Тори Джонстон

Описание:

Детство - это самая лучшая пора в жизни, особенно когда у тебя есть лучший друг, которому можно поведать обо всем на свете. Лучшие друзья, Кори и Бен, каждый день проводят друг с другом, ходят на рыбалку, говорят о девочках и наслаждаются беззаботным временем. Но идиллию прерывают проблемы взрослых, из-за которых мальчикам приходится столкнуться лицом к лицу с неизбежной опасностью.

Качество: WEB-DL 720p
Формат: MKV

Видео: h.264,5 313 kb/s, 1280x720
Аудио#1: Русский, (AC3, 2 ch, 384 Кбит/с)
скриншот  скриншот  скриншот  

Общее
Уникальный идентификатор : 249122621473789082037145200068676009818 (0xBB6B458AFD50E621950AAF85107FBF5A)
Полное имя : D:\Happy.Log.2016.P.WEB-DL.72Op_KOSHARA.mkv
Формат : Matroska
Версия формата : Version 2
Размер файла : 3,94 Гбайт
Продолжительность : 1 ч. 38 м.
Режим общего битрейта : Переменный
Общий поток : 5699 Кбит/сек
Дата кодирования : UTC 2019-02-17 08:00:45
Программа кодирования : mkvmerge v8.3.0 ('Over the Horizon') 64bit
Библиотека кодирования : libebml v1.3.1 + libmatroska v1.4.2

Видео
Идентификатор : 1
Формат : AVC
Формат/Информация : Advanced Video Codec
Профиль формата : High@L4.1
Параметр CABAC формата : Да
Параметр RefFrames формата : 4 кадра
Идентификатор кодека : V_MPEG4/ISO/AVC
Продолжительность : 1 ч. 38 м.
Вид битрейта : Переменный
Битрейт : 5313 Кбит/сек
Максимальный битрейт : 6000 Кбит/сек
Ширина : 1280 пикселей
Высота : 720 пикселей
Соотношение сторон : 16:9
Режим частоты кадров : Постоянный
Частота кадров : 23,976 (24000/1001) кадра/сек
Стандарт вещания : Component
Цветовое пространство : YUV
Субдискретизация насыщенности : 4:2:0
Битовая глубина : 8 бит
Тип развёртки : Прогрессивная
Бит/(Пиксели*Кадры) : 0.235
Размер потока : 3,59 Гбайт (91%)
Default : Да
Forced : Нет
Цветовой диапазон : Limited
Основные цвета : BT.709
Характеристики трансфера : BT.709
Коэффициенты матрицы : BT.709

Аудио
Идентификатор : 2
Формат : AC-3
Формат/Информация : Audio Coding 3
Расширение режима : CM (complete main)
Параметр Endianness формата : Big
Идентификатор кодека : A_AC3
Продолжительность : 1 ч. 38 м.
Вид битрейта : Постоянный
Битрейт : 384 Кбит/сек
Каналы : 2 канала
Расположение каналов : Front: L R
Частота : 48,0 КГц
Частота кадров : 31,250 кадров/сек (1536 spf)
Метод сжатия : С потерями
Размер потока : 272 Мбайт (7%)
Default : Да
Forced : Нет

pb.wtf



Скачать Дерево удачи через торрент https://b.radikal.ru/b31/1902/6c/da654328db27.jpg Скачать фильм Дерево удачи через торрент бесплантно в хорошем качестве Описание: Детство - это самая лучшая пора в жизни, особенно когда у тебя есть лучший друг, которому можно поведать обо всем на свете. ... 10 10 2
Торрент: Зарегистрирован [2019-02-17 17:13] · скачан: 13 раз
Статус: T временная
Размер: 3.94 GB
Как cкачать? Как скачать Дерево удачи через торрент | qTorrent

% Раздел Тема Автор DL S | L
T Фильмы (мультфильмы) cо спонсором показа (Новинки AVI/MKV) [ 1.37 GB ] Дерево удачи / Happy Log [2016 WEB-DLRip] MVO ["Синема УС"] bober100 Скачать
1 | 0

28-11-2019 20:33  

Отключить всю рекламу на сайте

    Дорогой пользователь! Огромная просьба, поблагодарите релизера, оцените раздачу и оставьте свои комментарий, если Вы скачали Дерево удачи через торрент бесплатно! Внесите свою лепту в развитие PiratBit!
    Комментировать посты могут только пользователи прошедшие не сложную регистрацию
    Показать сообщения:    

    Дерево удачи через торрент
    Скачать бесплатно Дерево удачи
    Дерево удачи скачать торрент
    Дерево удачи смотреть онлайн
    Cкачать фильм Дерево удачи бесплатно
    Дерево удачи скачать торрент в хорошем качестве
    Дерево удачи смотреть онлайн бесплатно в хорошем качестве


    Вы не можете начинать темы
    Вы не можете отвечать на сообщения
    Вы не можете редактировать свои сообщения
    Вы не можете удалять свои сообщения
    Вы не можете голосовать в опросах
    Вы не можете прикреплять файлы к сообщениям
    Вы можете скачивать файлы